<?xml version="1.0" standalone="no"?>
<!DOCTYPE svg PUBLIC "-//W3C//DTD SVG 1.1//EN" "http://www.w3.org/Graphics/SVG/1.1/DTD/svg11.dtd" >
<svg xmlns="http://www.w3.org/2000/svg" xmlns:xlink="http://www.w3.org/1999/xlink" version="1.1">
<metadata>
Created by FontForge 20170731 at Sat Oct  1 12:59:46 2016
 By Aleksey,,,
Copyright 2012 The Cutive Project Authors (vern@newtypography.co.uk)
</metadata>
<defs>
<font id="CutiveMono-Regular" horiz-adv-x="1240" >
  <font-face 
    font-family="Cutive Mono"
    font-weight="400"
    font-stretch="normal"
    units-per-em="2048"
    panose-1="0 0 5 0 0 0 0 0 0 0"
    ascent="1638"
    descent="-410"
    x-height="772"
    cap-height="1171"
    bbox="-940 -558 1612 1697"
    underline-thickness="0"
    underline-position="-435"
    unicode-range="U+000D-FB04"
  />
<missing-glyph 
d="M922 0v1092h-820v-1092h820zM204 990h616v-888h-616v888z" />
    <glyph glyph-name=".notdef" 
d="M922 0v1092h-820v-1092h820zM204 990h616v-888h-616v888z" />
    <glyph glyph-name=".null" horiz-adv-x="0" 
 />
    <glyph glyph-name="nonmarkingreturn" unicode="&#xd;" 
 />
    <glyph glyph-name="NULL" horiz-adv-x="0" 
 />
    <glyph glyph-name="NULL" horiz-adv-x="0" 
 />
    <glyph glyph-name="space" unicode=" " 
 />
    <glyph glyph-name="exclam" unicode="!" 
d="M573 1168.5q-17 -18.5 -17 -65.5q0 -78 5.5 -159t15.5 -192q11 -134 16 -211.5t5 -160.5q0 -19 6 -27.5t18 -8.5t18 8t6 28q0 84 5 167.5t15 205.5q10 121 15 197.5t5 152.5q0 47 -17 65.5t-47 18.5q-32 0 -49 -18.5zM693 164.5q-29 28.5 -72 28.5t-72.5 -28.5
t-29.5 -71.5t29.5 -72.5t72.5 -29.5t72 29.5t29 72.5t-29 71.5z" />
    <glyph glyph-name="quotedbl" unicode="&#x22;" 
d="M569 1122q0 23 -17.5 36.5t-40.5 13.5q-25 0 -42 -14.5t-15 -40.5l32 -396q1 -10 8 -15t17 -5t16.5 5t7.5 15l34 395v6zM786 1122q0 23 -17.5 36.5t-40.5 13.5q-25 0 -42 -14.5t-15 -40.5l32 -396q1 -10 8 -15t17 -5t16.5 5t7.5 15l34 395v6z" />
    <glyph glyph-name="numbersign" unicode="#" 
d="M647 -115.5q11 7.5 15 21.5l122 479h175q15 0 23 12.5t8 30.5q0 17 -8 29.5t-23 12.5h-154l56 219h141q14 0 22 12.5t8 29.5t-8 30t-23 13h-119l126 496q1 2 1 7q0 14 -12.5 22.5t-28.5 8.5q-14 0 -24 -6.5t-14 -19.5l-128 -508h-257l126 496q1 2 1 7q0 14 -12.5 22.5
t-28.5 8.5q-14 0 -24 -6.5t-14 -19.5l-128 -508h-173q-14 0 -22.5 -12.5t-8.5 -29.5q0 -18 8.5 -30.5t22.5 -12.5h151l-55 -219h-138q-14 0 -22.5 -12.5t-8.5 -29.5q0 -18 8.5 -30.5t22.5 -12.5h117l-119 -471q-1 -3 -1 -8q0 -13 11 -21t26 -8t26 7.5t15 21.5l122 479h257
l-119 -471q-1 -3 -1 -8q0 -13 11 -21t26 -8t26 7.5zM524 689h256l-55 -219h-257z" />
    <glyph glyph-name="dollar" unicode="$" 
d="M958.5 67q-98.5 -79 -251.5 -84v-124q0 -12 -10 -19t-23 -7q-14 0 -24 7t-10 19v127q-79 9 -155.5 40t-121.5 79q0 -58 -12 -90t-35 -32q-26 0 -37 16t-11 58v314q0 23 12.5 35t31.5 12t32.5 -13t13.5 -36v-119q0 -38 39.5 -76t105 -66t137.5 -36v489l-73 25
q-94 32 -153 64.5t-95.5 88t-36.5 142.5q0 97 46 166t124.5 104.5t174.5 35.5h13v128q0 14 10 21.5t24 7.5q13 0 23 -8t10 -21v-132q145 -17 210 -88q0 46 12 69t40 23q21 0 30.5 -16t9.5 -54v-253q0 -26 -13 -39.5t-33 -13.5q-18 0 -31.5 12.5t-13.5 34.5v91
q-7 61 -67.5 99t-143.5 49v-461l44 -15q105 -36 170.5 -75.5t100.5 -97t35 -140.5q0 -162 -98.5 -241zM640 659v442q-123 -2 -192.5 -60t-69.5 -155q0 -67 24.5 -104t68.5 -58t144 -56zM890.5 130q70.5 57 70.5 174q0 62 -26 103t-74.5 68t-129.5 55l-24 8v-469
q113 4 183.5 61z" />
    <glyph glyph-name="percent" unicode="%" 
d="M469 860q-18 44 -54 66q63 -11 120 -11q79 0 149 18.5t116 51.5l-499 -1168q-5 -11 -5 -24q0 -17 10 -26.5t25 -9.5q12 0 22.5 7t16.5 21l561 1319q4 9 4 20q0 17 -11.5 27.5t-25.5 10.5q-20 0 -29 -19q-33 -71 -99 -105t-149.5 -43t-217.5 -9h-42q-65 0 -117 -45
t-81.5 -120.5t-29.5 -163.5q0 -50 18.5 -92.5t51.5 -67.5t74 -25q61 0 109.5 44.5t75.5 113t27 137.5q-2 49 -20 93zM223 788.5q18 57.5 50 91t73 33.5q33 0 52 -42t19 -94q0 -54 -17 -111.5t-48 -96t-70 -38.5q-37 0 -57 37t-20 93q0 70 18 127.5zM1083.5 403
q-15.5 44 -46 71t-73.5 27q-68 0 -119.5 -47.5t-78.5 -121t-27 -148.5q0 -85 35.5 -141t103.5 -56q67 0 117 43.5t76.5 117t27.5 160.5q0 51 -15.5 95zM831.5 297q18.5 59 51.5 98.5t74 39.5q35 0 52 -38t17 -96q0 -60 -18 -120t-50 -98.5t-71 -38.5q-37 0 -55.5 39
t-18.5 98q0 57 18.5 116z" />
    <glyph glyph-name="ampersand" unicode="&#x26;" 
d="M1070 -32q18 0 32 13.5t14 30.5q0 23 -24 39q-26 18 -83.5 65.5t-103.5 86.5q65 93 106.5 175t45.5 166h59q18 0 27.5 12t9.5 29q0 16 -9.5 28.5t-25.5 12.5h-274q-16 0 -24 -11.5t-8 -27.5q0 -17 9 -30t25 -13h132q-2 -44 -22 -101.5t-49 -109t-58 -79.5
q-65 53 -160 162t-155 196l23 18q62 49 102.5 88t70.5 94t30 121q0 75 -30.5 133t-86.5 90.5t-132 32.5q-71 0 -124.5 -32t-82.5 -89t-29 -132q0 -73 40 -146t104 -158q-54 -45 -98 -87.5t-86.5 -107.5t-47.5 -134q-1 -11 -1 -31q0 -91 39.5 -156t112 -98.5t168.5 -33.5
q112 0 193.5 39t147.5 112l63 -53q53 -45 85.5 -70.5t55.5 -38.5q10 -5 19 -5zM404.5 814q-33.5 71 -33.5 130q0 56 22.5 92.5t56.5 53.5t71 17q62 0 107 -43t45 -133q0 -70 -55.5 -134.5t-130.5 -118.5q-49 65 -82.5 136zM626 368.5q102 -120.5 171 -176.5
q-47 -56 -122 -91.5t-158 -35.5q-103 0 -169 53t-66 164q0 19 1 29q5 61 66 134t120 119q55 -75 157 -195.5z" />
    <glyph glyph-name="quotesingle" unicode="'" 
d="M678 1122q0 23 -17.5 36.5t-40.5 13.5q-25 0 -42 -14.5t-15 -40.5l32 -396q1 -10 8 -15t17 -5t16.5 5t7.5 15l34 395v6z" />
    <glyph glyph-name="parenleft" unicode="(" 
d="M723 -144q18 0 32.5 15t14.5 31q0 8 -6 16q-92 108 -139 280.5t-47 371.5t47 371.5t139 280.5q6 8 6 16q0 16 -14.5 31t-32.5 15t-31 -17q-106 -140 -157 -311.5t-51 -385.5t51 -385.5t157 -311.5q13 -17 31 -17z" />
    <glyph glyph-name="parenright" unicode=")" 
d="M531 1284q-18 0 -32.5 -15t-14.5 -31q0 -8 6 -16q92 -108 139 -280.5t47 -371.5t-47 -371.5t-139 -280.5q-6 -8 -6 -16q0 -16 14.5 -31t32.5 -15t31 17q106 140 157 311.5t51 385.5t-51 385.5t-157 311.5q-13 17 -31 17z" />
    <glyph glyph-name="asterisk" unicode="*" 
d="M559 1092q-12 21 -40 21q-30 0 -55.5 -19t-25.5 -46q0 -9 6 -21l119 -155q15 -21 35 -21q18 0 31 11.5t13 28.5q0 9 -5 21zM678 912q-4 -14 -4 -21q0 -17 12.5 -28.5t30.5 -11.5q21 0 36 21l119 155q5 10 5 21q0 26 -25.5 45.5t-55.5 19.5q-29 0 -40 -21zM570 762.5
q11 11.5 11 28.5q0 18 -11 29.5t-30 13.5l-198 22q-23 0 -36.5 -19.5t-13.5 -45.5q0 -25 13.5 -44.5t36.5 -19.5l198 23q19 1 30 12.5zM747 820.5q-11 -11.5 -11 -29.5q0 -17 11 -28.5t30 -12.5l198 -23q23 0 36 19t13 45t-13 45.5t-36 19.5l-198 -22q-19 -2 -30 -13.5z
M637 672q4 12 4 20q0 17 -13 28t-31 11q-12 0 -20 -4.5t-15 -14.5l-119 -156q-6 -12 -6 -20q0 -27 25.5 -46.5t55.5 -19.5q28 0 41 22zM755 712q-8 10 -16.5 14.5t-20.5 4.5q-18 0 -30.5 -11t-12.5 -28q0 -6 2 -12t3 -8l78 -180q4 -10 15 -16t25 -6q29 0 55 19.5t26 46.5
q0 8 -6 20z" />
    <glyph glyph-name="plus" unicode="+" 
d="M669 804q0 25 -14 38.5t-34 13.5t-34 -13.5t-14 -38.5v-266h-257q-22 0 -32.5 -12t-10.5 -29q0 -18 10.5 -29.5t32.5 -11.5h257v-261q0 -25 14 -38.5t34 -13.5t34 13.5t14 38.5v261h255q23 0 33 11.5t10 29.5q0 17 -10 29t-33 12h-255v266z" />
    <glyph glyph-name="comma" unicode="," 
d="M548.5 15.5q30.5 -23.5 77.5 -23.5q0 -41 -33.5 -82.5t-75.5 -71.5q-12 -9 -12 -21q0 -10 8.5 -18.5t19.5 -8.5q7 0 10 2q43 22 86 63.5t71 95t28 108.5q0 57 -32 89t-80 32q-39 0 -68.5 -25t-29.5 -70q0 -46 30.5 -69.5z" />
    <glyph glyph-name="hyphen" unicode="-" 
d="M337.5 429.5q10.5 -11.5 41.5 -11.5h507q30 0 40.5 11t10.5 30t-10.5 30t-40.5 11h-507q-31 0 -41.5 -11t-10.5 -30q0 -18 10.5 -29.5z" />
    <glyph glyph-name="period" unicode="." 
d="M695.5 164.5q-30.5 30.5 -75.5 30.5t-75.5 -30t-30.5 -76t30 -75.5t76 -29.5q45 0 75.5 30t30.5 75t-30.5 75.5z" />
    <glyph glyph-name="slash" unicode="/" 
d="M257.5 -224.5q14.5 -12.5 32.5 -12.5q24 0 37 24l664 1326q6 12 6 21q0 17 -14 28t-32 11q-12 0 -22 -5.5t-15 -15.5l-667 -1330q-4 -8 -4 -17q0 -17 14.5 -29.5z" />
    <glyph glyph-name="zero" unicode="0" 
d="M276.5 291.5q44.5 -137.5 132 -222.5t210.5 -85q122 0 210 85t133.5 222.5t45.5 292.5q0 156 -45 294t-133.5 223.5t-210.5 85.5q-121 0 -209 -85.5t-133 -224t-45 -293.5t44.5 -292.5zM361 836q33 119 99 192t159 73q92 0 158.5 -73.5t100.5 -192t34 -252.5
t-33.5 -251.5t-99.5 -190t-160 -72.5q-93 0 -158.5 72.5t-99 190t-33.5 251.5t33 253z" />
    <glyph glyph-name="one" unicode="1" 
d="M674 1173l-404 -180q-24 -10 -24 -35q0 -17 12 -31t29 -14q9 0 17 4l335 152v-987h-369q-20 0 -31 -12t-11 -28q0 -17 12 -29.5t34 -12.5h800q19 0 29.5 12t10.5 29q0 16 -10.5 28.5t-28.5 12.5h-340v1048q0 24 -12 35.5t-29 11.5q-12 0 -20 -4z" />
    <glyph glyph-name="two" unicode="2" 
d="M279.5 880q15.5 -22 44.5 -22q20 0 31.5 18t17 48.5t13.5 92.5q2 26 4 38q93 46 207 46q126 0 189 -43.5t63 -150.5q0 -60 -37 -125.5t-91 -127t-146 -154.5q-100 -101 -160 -169.5t-101.5 -144.5t-41.5 -149q0 -12 3 -22.5t4 -14.5h638q24 0 39 13.5t15 36.5v208
q0 25 -12.5 38t-31.5 13t-35 -12.5t-17 -32.5l-12 -182h-496q21 61 63.5 121t91 113t127.5 132q99 100 157.5 166.5t98.5 143.5t40 156q0 136 -90 204.5t-243 68.5q-164 0 -256 -60t-92 -189q0 -36 15.5 -58z" />
    <glyph glyph-name="three" unicode="3" 
d="M785.5 544q68.5 -65 68.5 -178q0 -85 -37.5 -152.5t-107 -106t-162.5 -38.5q-65 0 -100 11.5t-68 33.5q-22 14 -38 20.5t-40 6.5q-16 0 -27 -11.5t-11 -21.5q0 -30 41.5 -59t107 -47.5t132.5 -18.5q113 0 205.5 48.5t146.5 134.5t54 194q0 93 -38 164t-111 111t-176 40
q62 30 115 63.5t98 90.5t45 130q0 71 -35 122.5t-96 78.5t-137 27q-56 0 -129.5 -18.5t-126 -52.5t-52.5 -79q0 -13 11 -23t30 -10q28 0 42.5 8.5t31.5 26.5q18 20 36.5 32.5t55.5 21.5t99 9q86 0 130 -41.5t44 -101.5q0 -51 -27.5 -90t-71.5 -70t-125 -79l-67 -41
q-16 -9 -23.5 -20t-7.5 -21q0 -18 10 -27.5t28 -9.5q9 0 31 3q55 5 68 5q115 0 183.5 -65z" />
    <glyph glyph-name="four" unicode="4" 
d="M978 10q7 10 7 24q0 13 -6.5 22t-17.5 9h-158v306h200q18 0 27.5 11.5t9.5 27.5q0 17 -9 28t-26 11h-202v676q0 29 -11 41.5t-28 12.5q-12 0 -22.5 -4t-13.5 -8l-511 -724q-10 -13 -10 -28q0 -17 12 -30.5t26 -13.5h462v-306h-288q-11 0 -17.5 -9t-6.5 -22q0 -14 7 -24
t18 -10h540q11 0 18 10zM707 449h-385l385 570v-570z" />
    <glyph glyph-name="five" unicode="5" 
d="M967 572.5q-44 77.5 -118.5 120t-161.5 42.5q-62 0 -124.5 -23t-118.5 -70l35 439q0 8 8 8h370q36 0 56.5 39t20.5 99q0 16 -13 24.5t-32 8.5q-18 0 -27.5 -17.5t-23.5 -71.5h-324q-66 0 -101 -10.5t-35 -49.5l-20 -582q0 -16 11 -25t26 -9q12 0 21.5 5.5t13.5 16.5
q31 62 101.5 101t147.5 39q64 0 117 -29t86 -91t33 -156q0 -100 -48 -171.5t-123 -108t-152 -36.5q-56 0 -112 15.5t-103 49.5q-11 8 -24 8q-16 0 -28 -12t-12 -28q0 -25 27 -44q49 -34 110 -52.5t129 -18.5q120 0 218.5 51t156 145t57.5 217q0 99 -44 176.5z" />
    <glyph glyph-name="six" unicode="6" 
d="M499 703q-83 -38 -138 -112q25 175 126 328t234 264q12 11 12 24q0 17 -14 31.5t-32 14.5q-14 0 -28 -12q-185 -167 -293.5 -361t-108.5 -454q0 -206 98.5 -324.5t292.5 -118.5q112 0 198 46t133.5 130.5t47.5 197.5t-43 200t-124 135.5t-192 48.5q-86 0 -169 -38z
M391.5 510.5q38.5 67.5 111 108t168.5 40.5q88 0 146.5 -42.5t86 -111.5t27.5 -151q0 -79 -33 -145t-97.5 -105t-152.5 -39q-101 0 -167 40.5t-97 108t-31 150.5q0 79 38.5 146.5z" />
    <glyph glyph-name="seven" unicode="7" 
d="M651.5 7q13.5 14 13.5 39q0 202 38 375t99.5 320.5t161.5 339.5q7 13 7 30q0 23 -12.5 41.5t-30.5 18.5h-598q-25 0 -40.5 -14.5t-15.5 -39.5v-201q0 -25 14 -39t33 -14q20 0 34.5 14t14.5 39v169h494q-90 -172 -152.5 -324.5t-102.5 -332.5t-40 -381q0 -25 15 -39.5
t35 -14.5q19 0 32.5 14z" />
    <glyph glyph-name="eight" unicode="8" 
d="M324 779q34 -52 81 -88t121 -81l18 -11q-82 -48 -138.5 -88.5t-101 -101.5t-44.5 -135q0 -153 109 -222t273 -69q171 0 275.5 68.5t104.5 216.5q0 78 -43.5 137t-99 97t-151.5 93q80 55 125.5 93t81 95.5t35.5 129.5q0 137 -95 205.5t-255 68.5q-94 0 -169 -34
t-118 -99.5t-43 -156.5q0 -66 34 -118zM848 801q-30 -47 -80 -84.5t-126 -81.5l-26 14q-86 48 -131 79t-74 74.5t-29 103.5q0 67 34.5 111t90.5 64t121 20q117 0 183.5 -46.5t66.5 -149.5q0 -57 -30 -104zM400 392.5q44 52.5 98.5 89.5t127.5 78l47 -25q78 -41 128.5 -74.5
t87.5 -82.5t37 -112q0 -197 -278 -197q-123 0 -207.5 47.5t-84.5 165.5q0 58 44 110.5z" />
    <glyph glyph-name="nine" unicode="9" 
d="M778 467q83 38 138 112q-44 -308 -362 -573q-12 -11 -12 -24q0 -17 14 -31.5t32 -14.5q15 0 28 12q122 110 208.5 220t141 253.5t54.5 322.5q0 206 -98.5 324.5t-292.5 118.5q-112 0 -198 -46t-133.5 -130.5t-47.5 -197.5t43 -200t124 -135.5t192 -48.5q86 0 169 38z
M885.5 659.5q-38.5 -67.5 -111 -108t-168.5 -40.5q-88 0 -146.5 42.5t-86 111.5t-27.5 151q0 79 33 145t97.5 105t152.5 39q101 0 167 -40.5t97 -108t31 -150.5q0 -79 -38.5 -146.5z" />
    <glyph glyph-name="colon" unicode=":" 
d="M719.5 780.5q-30.5 30.5 -75.5 30.5t-75 -30t-30 -76t29.5 -75.5t75.5 -29.5q45 0 75.5 30t30.5 75t-30.5 75.5zM719.5 164.5q-30.5 30.5 -75.5 30.5t-75 -30t-30 -76t29.5 -75.5t75.5 -29.5q45 0 75.5 30t30.5 75t-30.5 75.5z" />
    <glyph glyph-name="semicolon" unicode=";" 
d="M719.5 780.5q-30.5 30.5 -75.5 30.5t-75 -30t-30 -76t29.5 -75.5t75.5 -29.5q45 0 75.5 30t30.5 75t-30.5 75.5zM579.5 34q28.5 -21 74.5 -21q0 -41 -25.5 -67.5t-71.5 -57.5q-8 -6 -12.5 -14t-4.5 -16q0 -14 12 -25t29 -11q14 0 25 6q68 35 109 92t41 139q0 57 -32 89
t-80 32q-38 0 -65.5 -22t-27.5 -62q0 -41 28.5 -62z" />
    <glyph glyph-name="less" unicode="&#x3c;" 
d="M981 132q18 0 31 16t13 35q0 27 -27 38l-819 333l809 328q21 8 21 32q0 19 -13.5 36.5t-30.5 17.5q-4 0 -10 -2l-868 -361q-12 -5 -19 -20.5t-7 -34.5q0 -18 7 -33t19 -20l880 -362q7 -3 14 -3z" />
    <glyph glyph-name="equal" unicode="=" 
d="M308 675.5q-12 -13.5 -12 -31.5q0 -19 12 -32.5t33 -13.5h559q21 0 33 13.5t12 32.5q0 18 -12 31.5t-33 13.5h-559q-21 0 -33 -13.5zM308 333.5q-12 -13.5 -12 -31.5q0 -19 12 -32.5t33 -13.5h559q21 0 33 13.5t12 32.5q0 18 -12 31.5t-33 13.5h-559q-21 0 -33 -13.5z
" />
    <glyph glyph-name="greater" unicode="&#x3e;" 
d="M236 968q-18 0 -31 -16t-13 -35q0 -27 27 -38l819 -333l-809 -328q-21 -8 -21 -32q0 -19 13.5 -36.5t30.5 -17.5q4 0 10 2l868 361q12 5 19 20.5t7 34.5q0 18 -7 33t-19 20l-880 362q-7 3 -14 3z" />
    <glyph glyph-name="question" unicode="?" 
d="M430.5 1162q-61.5 -26 -96 -75.5t-34.5 -115.5q0 -35 12 -57.5t37 -22.5q28 0 42.5 23.5t19.5 56t8 85.5l2 26q38 17 74 23t75 6q66 0 115 -25t75.5 -70t26.5 -104q0 -18 -3 -38q-7 -49 -27.5 -89t-46 -69.5t-67.5 -72.5q-45 -45 -71.5 -77t-44.5 -75.5t-18 -97.5
q0 -28 6 -41.5t28 -13.5q19 0 25.5 13.5t6.5 42.5q0 38 18.5 71.5t46.5 62t76 69.5q60 52 98 92.5t64.5 95t26.5 121.5q0 91 -42.5 154.5t-117.5 95.5t-172 32q-81 0 -142.5 -26zM621 165.5q-29 28.5 -72 28.5t-72.5 -29t-29.5 -72t29.5 -72.5t72.5 -29.5t72 30t29 73
t-29 71.5z" />
    <glyph glyph-name="at" unicode="@" 
d="M907 964.5q93 -47.5 146.5 -137t53.5 -209.5q0 -152 -38 -250.5t-143 -98.5q-70 0 -76 58q0 10 1 15l29 300q-26 35 -51.5 61.5t-72 49.5t-109.5 23q-70 0 -123 -37t-81.5 -107t-28.5 -166q0 -84 29 -147t77 -96.5t102 -33.5q50 0 96.5 29t80.5 86q15 -57 44.5 -83.5
t79.5 -26.5q148 0 215 108.5t67 282.5q0 158 -65.5 274t-181.5 178t-263 62q-181 0 -320.5 -95.5t-215.5 -248t-76 -316.5q0 -147 65 -274t193 -204t308 -77h2q93 0 169 19.5t158 70.5q19 12 19 33q0 15 -10 26.5t-26 11.5q-13 0 -23 -5q-59 -30 -134 -51.5t-156 -21.5
q-147 0 -250.5 65t-156 172t-52.5 232q0 142 63.5 275t179.5 217t267 84q115 0 208 -47.5zM631 263q-62 0 -96.5 56.5t-34.5 140.5q0 104 37 172t115 68q59 0 90 -16t42 -48t11 -86q0 -140 -36 -213.5t-127 -73.5h-1z" />
    <glyph glyph-name="A" unicode="A" 
d="M475.5 12.5q13.5 12.5 13.5 30.5q0 17 -13.5 30t-36.5 13h-159l112 306h483l107 -306h-186q-23 0 -36 -12.5t-13 -29.5q0 -18 13.5 -31t37.5 -13h366q23 0 36.5 13t13.5 31q0 17 -12.5 29.5t-35.5 12.5h-79l-362 1020q-23 65 -81 65h-303q-23 0 -36 -13t-13 -30
q0 -18 13 -30.5t37 -12.5h217l-385 -999h-85q-23 0 -36 -13t-13 -30q0 -18 13 -30.5t37 -12.5h348q24 0 37.5 12.5zM646 1072l199 -597h-420z" />
    <glyph glyph-name="B" unicode="B" 
d="M960.5 741q46.5 60 46.5 148q0 152 -113.5 217t-301.5 65h-356q-23 0 -35.5 -12.5t-12.5 -29.5q0 -18 13 -31t36 -13h166v-999h-160q-23 0 -36.5 -13t-13.5 -30q0 -18 13.5 -30.5t37.5 -12.5h358q225 0 363.5 85.5t138.5 262.5q0 141 -72.5 218t-188.5 94q71 21 117.5 81
zM499 673v412h106q151 0 233.5 -46t82.5 -154q0 -72 -41 -120t-107 -70t-144 -22h-130zM499 86v511h130q117 0 197.5 -16t131 -67t50.5 -151q0 -149 -106 -213t-297 -64h-106z" />
    <glyph glyph-name="C" unicode="C" 
d="M1128 373.5q-18 13.5 -39 13.5q-30 0 -40 -28q-41 -136 -139 -213t-240 -77q-119 0 -220 63.5t-161.5 184t-60.5 283.5q0 145 54 259t154 178t235 64q89 0 164 -34.5t125.5 -96.5t65.5 -143q4 -22 17 -34.5t31 -12.5q19 0 32.5 12t13.5 35v293q0 24 -14.5 37.5
t-34.5 13.5t-34.5 -13.5t-14.5 -36.5v-106q-27 49 -80.5 88t-124.5 61.5t-149 22.5q-153 0 -275 -73t-191.5 -205t-69.5 -302q0 -187 69.5 -328.5t191.5 -218.5t276 -77q137 0 237.5 51t159.5 131.5t79 170.5q1 2 1 7q0 17 -18 30.5z" />
    <glyph glyph-name="D" unicode="D" 
d="M157 1171q-23 0 -36.5 -13t-13.5 -31q0 -17 12.5 -29.5t35.5 -12.5h159v-999h-163q-23 0 -36.5 -13t-13.5 -30q0 -18 13.5 -30.5t37.5 -12.5h361q280 0 425.5 141.5t145.5 449.5q0 292 -151 436t-418 144h-358zM410 86v999h124q219 0 336.5 -128t117.5 -366
q0 -256 -112 -380.5t-356 -124.5h-110z" />
    <glyph glyph-name="E" unicode="E" 
d="M826 818.5q-11 13.5 -27 13.5q-15 0 -26.5 -12t-13.5 -33l-13 -133h-326v431h609l14 -244q1 -18 13.5 -28t28.5 -10t28 11.5t12 32.5v270q0 25 -15.5 39.5t-40.5 14.5h-878q-23 0 -36.5 -13t-13.5 -31q0 -17 12.5 -29.5t35.5 -12.5h135v-1000h-170q-23 0 -36.5 -12.5
t-13.5 -29.5t13.5 -30t37.5 -13h926q25 0 40.5 14t15.5 39v270q0 25 -12.5 38.5t-29.5 13.5t-30 -11t-14 -28l-16 -251h-615v492h326l13 -148q1 -20 13 -31.5t27 -11.5q16 0 27 13t11 38v342q0 26 -11 39.5z" />
    <glyph glyph-name="F" unicode="F" 
d="M837 818.5q-11 13.5 -27 13.5q-15 0 -26.5 -12t-13.5 -33l-13 -133h-337v431h622l14 -244q1 -18 13.5 -28t28.5 -10t28 11.5t12 32.5v270q0 25 -15.5 39.5t-40.5 14.5h-891q-23 0 -36.5 -13t-13.5 -31q0 -17 12.5 -29.5t35.5 -12.5h135v-1000h-170q-23 0 -36.5 -12.5
t-13.5 -29.5t13.5 -30t37.5 -13h616q21 0 33 12.5t12 30.5q0 17 -12 29.5t-34 12.5h-350v492h337l13 -148q1 -20 13 -31.5t27 -11.5q16 0 27 13t11 38v342q0 26 -11 39.5z" />
    <glyph glyph-name="G" unicode="G" 
d="M1181.5 523q13.5 13 13.5 31q0 17 -13 29.5t-36 12.5h-284q-23 0 -36 -12.5t-13 -29.5q0 -18 13.5 -31t36.5 -13h124v-178q-38 -119 -134.5 -191t-245.5 -72q-119 0 -215 63.5t-151.5 183.5t-55.5 284q0 147 49 260t144.5 177t229.5 64q89 0 164 -34.5t125.5 -96.5
t65.5 -143q4 -22 17 -34.5t31 -12.5q19 0 32.5 12t13.5 35v293q0 24 -14.5 37.5t-34.5 13.5t-34.5 -13.5t-14.5 -36.5v-106q-27 49 -80.5 88t-124.5 61.5t-149 22.5q-152 0 -269.5 -72.5t-182 -204t-64.5 -303.5q0 -188 65 -329.5t182 -218t270 -76.5q88 0 166 24.5t134 68
t81 99.5v-124q0 -28 14.5 -43.5t34.5 -15.5q19 0 33 15t14 42v461h61q24 0 37.5 13z" />
    <glyph glyph-name="H" unicode="H" 
d="M495.5 13.5q13.5 13.5 13.5 32.5q0 16 -12.5 28t-35.5 12h-100v472h540v-472h-100q-23 0 -35.5 -12.5t-12.5 -29.5q0 -18 13.5 -31t36.5 -13h294q23 0 36.5 13t13.5 30q0 18 -13 30.5t-37 12.5h-100v999h100q24 0 37 13.5t13 31.5q0 16 -13.5 28.5t-36.5 12.5h-294
q-23 0 -36.5 -13t-13.5 -31q0 -17 12.5 -29.5t35.5 -12.5h100v-447h-540v447h100q23 0 35.5 12.5t12.5 29.5q0 18 -13.5 31t-36.5 13h-302q-23 0 -36.5 -13t-13.5 -30q0 -18 13 -30.5t37 -12.5h108v-999h-124q-23 0 -35.5 -12.5t-12.5 -29.5q0 -18 13.5 -31t36.5 -13h316
q23 0 36.5 13.5z" />
    <glyph glyph-name="I" unicode="I" 
d="M1032 12.5q13 12.5 13 30.5q0 17 -13 30t-36 13h-286v999h286q23 0 36 12.5t13 29.5q0 18 -13.5 31t-36.5 13h-685q-24 0 -37.5 -13t-13.5 -31q0 -17 13.5 -29.5t36.5 -12.5h305v-999h-305q-23 0 -36.5 -13t-13.5 -30q0 -18 13.5 -30.5t37.5 -12.5h685q24 0 37 12.5z" />
    <glyph glyph-name="J" unicode="J" 
d="M1026 1085q23 0 36 13t13 30q0 18 -13 30.5t-37 12.5h-615q-23 0 -36 -13t-13 -31q0 -17 12.5 -29.5t35.5 -12.5h350v-771q0 -85 -43.5 -140t-111.5 -80.5t-144 -25.5q-59 0 -111 14.5t-83.5 40.5t-31.5 59v101q0 21 -14 33t-33 12t-34 -12t-15 -33v-112q0 -55 43.5 -97
t115 -64.5t154.5 -22.5q103 0 195 35.5t150.5 110t58.5 184.5v768h171z" />
    <glyph glyph-name="K" unicode="K" 
d="M622 12.5q13 12.5 13 30.5q0 17 -13 30t-36 13h-244v379l185 156l478 -535h-166q-23 0 -36 -13t-13 -30q0 -18 13 -30.5t37 -12.5h418q23 0 36 12.5t13 30.5q0 17 -12.5 30t-35.5 13h-137l-521 590l438 408h138q23 0 35.5 12.5t12.5 30.5t-13 31t-36 13h-362
q-23 0 -36.5 -12t-13.5 -28q0 -15 13 -26t36 -11h89q19 0 19 -6q0 -3 -7 -10l-576 -520v526h193q23 0 35.5 12.5t12.5 29.5q0 18 -13.5 31.5t-36.5 13.5h-445q-24 0 -37.5 -13t-13.5 -31t13 -30.5t37 -12.5h159v-998h-159q-23 0 -36.5 -13t-13.5 -30q0 -18 13.5 -30.5
t37.5 -12.5h501q24 0 37 12.5z" />
    <glyph glyph-name="L" unicode="L" 
d="M130.5 1158q-13.5 -13 -13.5 -31q0 -17 13 -29.5t36 -12.5h227v-999h-269q-23 0 -36.5 -13t-13.5 -30q0 -18 13.5 -30.5t37.5 -12.5h895q31 0 49.5 18.5t22.5 47.5l30 321v6q0 23 -15 36t-36 13q-19 0 -33 -11t-17 -32l-34 -276q-2 -21 -12 -28t-29 -9h-457v999h152
q23 0 36.5 12.5t13.5 29.5q0 18 -13.5 31t-37.5 13h-473q-23 0 -36.5 -13z" />
    <glyph glyph-name="M" unicode="M" 
d="M1206.5 13q13.5 13 13.5 31q0 17 -12.5 29.5t-35.5 12.5h-128v999h113q23 0 36.5 12.5t13.5 29.5q0 18 -13.5 31t-37.5 13h-192q-16 0 -28 -8.5t-17 -21.5l-290 -668l-301 663q-16 35 -46 35h-198q-23 0 -36.5 -13t-13.5 -31q0 -17 13 -29.5t36 -12.5h119v-999h-133
q-23 0 -36 -13t-13 -30q0 -18 13 -30.5t37 -12.5h347q24 0 37.5 13t13.5 31q0 17 -13 29.5t-37 12.5h-120v892l267 -593q9 -22 25 -32.5t35 -10.5q20 0 38 12.5t28 35.5l257 592v-896h-133q-23 0 -36 -12.5t-13 -29.5q0 -18 13.5 -31t37.5 -13h353q23 0 36.5 13z" />
    <glyph glyph-name="N" unicode="N" 
d="M285 86h-126q-23 0 -36 -13t-13 -30q0 -18 13 -30.5t37 -12.5h358q24 0 37 12.5t13 30.5q0 17 -13 30t-36 13h-138v998l553 -1062q9 -18 24.5 -28t31.5 -10q21 0 35 16t14 47v1038h96q23 0 35.5 12.5t12.5 29.5q0 18 -13.5 31t-36.5 13h-337q-24 0 -37.5 -13t-13.5 -31
q0 -17 13 -29.5t36 -12.5h149v-891l-486 953q-6 13 -15 18.5t-25 5.5h-287q-23 0 -36.5 -13t-13.5 -31q0 -17 13 -29.5t36 -12.5h156v-999z" />
    <glyph glyph-name="O" unicode="O" 
d="M1073.5 876.5q-58.5 138.5 -174.5 224.5t-279 86t-279 -86t-174.5 -224.5t-58.5 -294.5t58.5 -293t174.5 -221.5t279 -84.5t279 84.5t174.5 221.5t58.5 293t-58.5 294.5zM989 331.5q-47 -117.5 -141 -190t-228 -72.5t-228 72.5t-141 190t-47 250.5q0 135 48 253.5
t142 192t226 73.5t226 -73.5t142 -192t48 -253.5q0 -133 -47 -250.5z" />
    <glyph glyph-name="P" unicode="P" 
d="M188 1171q-23 0 -36.5 -13t-13.5 -31q0 -17 13 -29.5t36 -12.5h159v-999h-173q-23 0 -36.5 -13t-13.5 -30q0 -18 13.5 -30.5t37.5 -12.5h596q24 0 37 12.5t13 30.5q0 17 -13 30t-36 13h-329v441h116q163 0 267.5 18.5t173.5 88t69 213.5t-73 214.5t-183.5 90t-279.5 19.5
h-344zM442 607v478h110q131 0 215 -12t144.5 -65t60.5 -165q0 -106 -50.5 -157.5t-128 -65t-199.5 -13.5h-152z" />
    <glyph glyph-name="Q" unicode="Q" 
d="M521 -24q78 -95 119 -137t90.5 -63.5t123.5 -21.5q40 0 102 21.5t98 55.5q23 14 23 39q0 17 -12 30.5t-28 13.5t-29 -9q-100 -67 -172 -67q-62 0 -114 54l-86 91q158 4 270.5 89.5t169 221t56.5 288.5q0 156 -58.5 294.5t-174.5 224.5t-279 86t-279 -86t-174.5 -224.5
t-58.5 -294.5q0 -137 45.5 -260.5t135 -211t217.5 -115.5zM989 331.5q-47 -117.5 -141 -190t-228 -72.5t-228 72.5t-141 190t-47 250.5q0 135 48 253.5t142 192t226 73.5t226 -73.5t142 -192t48 -253.5q0 -133 -47 -250.5z" />
    <glyph glyph-name="R" unicode="R" 
d="M429 82v460h175q35 0 92 5t68 9l180 -474h-51q-23 0 -36 -12t-13 -28q0 -17 13.5 -29.5t37.5 -12.5h235q33 0 48 12t15 30q0 17 -14.5 28.5t-49.5 11.5h-84l-204 496q89 33 147.5 100.5t58.5 174.5q0 130 -59.5 199.5t-164.5 94t-266 24.5h-320q-24 0 -37.5 -13
t-13.5 -31q0 -17 13.5 -29.5t36.5 -12.5h97v-1003h-125q-24 0 -37 -12t-13 -29q0 -16 13.5 -28.5t37.5 -12.5h399q24 0 37 12.5t13 28.5q0 17 -13 29t-36 12h-180zM556 1085q151 0 234 -18t122 -69t39 -152q0 -95 -50 -144.5t-137.5 -66t-227.5 -16.5h-107v466h127z" />
    <glyph glyph-name="S" unicode="S" 
d="M918 858q0 -22 13.5 -34.5t31.5 -12.5q20 0 33 13.5t13 39.5v253q0 38 -9.5 54t-30.5 16q-28 0 -40 -23t-12 -69q-47 52 -124.5 72t-165.5 20q-96 0 -174.5 -35.5t-124.5 -104.5t-46 -166q0 -87 36.5 -142.5t95.5 -88t153 -64.5l164 -56q81 -28 129.5 -55t74.5 -68
t26 -103q0 -121 -75 -178t-194 -57q-81 0 -158.5 27t-126.5 69.5t-49 84.5v119q0 23 -13.5 36t-32.5 13t-31.5 -12t-12.5 -35v-314q0 -42 11 -58t37 -16q23 0 35 32t12 90q53 -56 147 -89t179 -33q102 0 185 33t133 106t50 186q0 83 -35 140.5t-100.5 97t-170.5 75.5
l-136 47q-100 35 -144 56t-68.5 58t-24.5 104q0 100 72 157.5t200 57.5q62 0 121.5 -17t100 -51.5t46.5 -83.5v-91z" />
    <glyph glyph-name="T" unicode="T" 
d="M570 1085v-999h-242q-23 0 -36.5 -12.5t-13.5 -29.5q0 -18 14 -31t38 -13h576q24 0 37.5 13t13.5 31q0 17 -13 29.5t-36 12.5h-242v999h352l10 -271q1 -20 14 -31.5t30 -11.5q19 0 32.5 13.5t13.5 38.5v294q0 27 -9.5 40.5t-30.5 13.5h-916q-23 0 -32.5 -13t-9.5 -41
v-294q0 -25 15 -39.5t34 -14.5q16 0 28 11.5t13 33.5l12 271h348z" />
    <glyph glyph-name="U" unicode="U" 
d="M1056 1085h118q33 0 51 12.5t18 29.5q0 18 -18.5 31t-51.5 13h-333q-24 0 -37.5 -13t-13.5 -31q0 -17 13.5 -29.5t36.5 -12.5h121v-674q0 -100 -38 -177.5t-107 -121t-161 -43.5q-149 0 -229 90t-80 254v672h162q23 0 36 12.5t13 29.5q0 18 -13.5 31t-36.5 13h-401
q-23 0 -36.5 -13t-13.5 -31q0 -17 13 -29.5t36 -12.5h145v-672q0 -133 51 -230t142.5 -148.5t211.5 -51.5q118 0 209.5 54t142 151t50.5 223v674z" />
    <glyph glyph-name="V" unicode="V" 
d="M789.5 1158.5q-13.5 -12.5 -13.5 -30.5q0 -17 13.5 -30t36.5 -13h120l-275 -966l-303 966h131q23 0 36 13t13 30q0 18 -13 30.5t-37 12.5h-340q-23 0 -36.5 -13t-13.5 -31q0 -17 12.5 -29.5t35.5 -12.5h104l342 -1065q9 -27 24 -41.5t40 -14.5t37.5 12.5t26.5 43.5
l316 1065h86q23 0 36 13t13 30q0 18 -13 30.5t-37 12.5h-304q-24 0 -37.5 -12.5z" />
    <glyph glyph-name="W" unicode="W" 
d="M858 196l-169 654q-4 17 -16 26.5t-27 9.5t-28 -9.5t-17 -26.5l-177 -651l-138 886h114q24 0 37.5 13t13.5 31q0 17 -13 29.5t-36 12.5h-302q-23 0 -36 -12.5t-13 -29.5q0 -18 13.5 -31t36.5 -13h84l166 -1050q3 -24 18 -38t34 -14q17 0 31 11t20 33l187 674l170 -666
q6 -24 21 -38t32 -14q20 0 34 11t18 33l164 1058h70q24 0 37.5 13t13.5 31q0 17 -13.5 29.5t-36.5 12.5h-279q-23 0 -36 -12.5t-13 -29.5q0 -18 13.5 -31t36.5 -13h107z" />
    <glyph glyph-name="X" unicode="X" 
d="M765 1127q0 -42 39 -42h101l-277 -409l-275 409h148q39 0 39 42q0 44 -40 44h-336q-40 0 -40 -44q0 -42 39 -42h82l329 -489l-348 -514h-85q-39 0 -39 -41t40 -41h348q40 0 40 41t-39 41h-149l290 428l289 -428h-156q-23 0 -36 -12.5t-13 -28.5q0 -17 13 -29t37 -12h332
q41 0 41 42q0 40 -39 40h-73l-341 507l336 496h73q39 0 39 42q0 44 -40 44h-289q-40 0 -40 -44z" />
    <glyph glyph-name="Y" unicode="Y" 
d="M767 1159.5q-14 -11.5 -14 -26.5t13.5 -26.5t36.5 -11.5h111l-268 -462l-276 462h136q23 0 36.5 11.5t13.5 26.5t-13.5 26.5t-37.5 11.5h-330q-23 0 -37 -11.5t-14 -26.5t13.5 -26.5t36.5 -11.5h84l335 -542v-467h-261q-23 0 -36.5 -12.5t-13.5 -29.5q0 -18 14 -31
t38 -13h585q23 0 36.5 13t13.5 31q0 17 -12.5 29.5t-35.5 12.5h-232v462l323 547h55q23 0 36 11t13 26q0 16 -13.5 27.5t-37.5 11.5h-261q-23 0 -37 -11.5z" />
    <glyph glyph-name="Z" unicode="Z" 
d="M336 767.5q13 10.5 14 29.5l16 288h514l-633 -990q-2 -4 -15 -25t-13 -39q0 -31 52 -31h722q23 0 37.5 14t13.5 39l-10 332q0 25 -12 37.5t-29 12.5q-19 0 -34.5 -14t-16.5 -37v-298h-573l622 995q10 16 10 35q0 22 -13 38.5t-36 16.5h-630q-35 0 -51 -15.5t-17 -39.5
v-310q0 -23 15.5 -36t35.5 -13q18 0 31 10.5z" />
    <glyph glyph-name="bracketleft" unicode="[" 
d="M515 1270v-1360q0 -27 14.5 -42.5t40.5 -15.5h232q13 0 20.5 12.5t7.5 29.5t-7.5 29.5t-20.5 12.5h-191v1311h191q13 0 20.5 12.5t7.5 29.5t-7.5 29.5t-20.5 12.5h-232q-55 0 -55 -61z" />
    <glyph glyph-name="backslash" unicode="\" 
d="M309.5 1167.5q-9.5 5.5 -21.5 5.5q-18 0 -32 -11t-14 -28q0 -11 5 -21l664 -1326q13 -24 38 -24q18 0 32 12t14 30q0 9 -4 17l-667 1330q-5 10 -14.5 15.5z" />
    <glyph glyph-name="bracketright" unicode="]" 
d="M739 -87v1360q0 27 -14.5 42.5t-40.5 15.5h-232q-13 0 -20.5 -12.5t-7.5 -29.5t7.5 -29.5t20.5 -12.5h191v-1311h-191q-13 0 -20.5 -12.5t-7.5 -29.5t7.5 -29.5t20.5 -12.5h232q55 0 55 61z" />
    <glyph glyph-name="asciicircum" unicode="^" 
d="M680 969q-13 28 -26.5 38.5t-28.5 10.5q-33 0 -59 -54l-240 -487q-10 -19 -10 -41q0 -20 11.5 -32.5t28.5 -12.5q14 0 27 9t22 26l222 433l204 -437q7 -13 18.5 -22t26.5 -9q19 0 33.5 13.5t14.5 31.5q0 8 -6 24z" />
    <glyph glyph-name="underscore" unicode="_" 
d="M208 77.5q-12 -13.5 -12 -31.5q0 -19 12 -32.5t33 -13.5h759q21 0 33 13.5t12 32.5q0 18 -12 31.5t-33 13.5h-759q-21 0 -33 -13.5z" />
    <glyph glyph-name="grave" unicode="`" 
d="M92 1267q-11 10 -28 10q-22 0 -40 -18t-18 -39q0 -18 19 -31l79 -50q185 -116 261 -160q4 -4 12 -4q13 0 23 11t10 24q0 15 -10 21q-150 100 -308 236z" />
    <glyph glyph-name="a" unicode="a" 
d="M814 470l-73 -5q-163 -11 -259.5 -28t-162.5 -70t-66 -157q0 -103 63 -164.5t175 -61.5q104 0 192.5 37t137.5 92q12 -71 47 -95.5t86 -24.5q45 0 86.5 19.5t73.5 53.5q10 10 10 25q0 16 -11 29t-26 13q-13 0 -24 -12q-17 -18 -46 -33.5t-55 -15.5q-24 0 -38 12.5
t-14 47.5v312q0 122 -26 202.5t-91.5 123.5t-180.5 43q-102 0 -181 -27t-123 -75t-44 -108q0 -32 15.5 -52t44.5 -20q34 0 48 39t18 116q53 24 105.5 34.5t115.5 10.5q112 0 157.5 -62t45.5 -179v-20zM675.5 98.5q-84.5 -33.5 -173.5 -33.5q-69 0 -110.5 34.5t-41.5 110.5
q0 70 48 106t129.5 50.5t245.5 30.5l41 4v-212q-54 -57 -138.5 -90.5z" />
    <glyph glyph-name="b" unicode="b" 
d="M325 1178l-189 -19q-17 -3 -25 -15t-8 -26q0 -16 11 -27t28 -11q6 0 11 1t9 2l128 8v-1017q0 -46 11 -62t30 -16q16 0 26.5 6t17.5 29t7 71q52 -53 127 -86t165 -33q115 0 199.5 53t129.5 147t45 215q0 119 -46 213.5t-131.5 148t-200.5 53.5q-91 0 -157.5 -27
t-126.5 -79v434q0 39 -41 39q-4 0 -20 -2zM504.5 104q-71.5 39 -118.5 106v392q103 129 278 129q92 0 157 -45t98 -121t33 -167q0 -92 -32 -167.5t-95 -120.5t-153 -45q-96 0 -167.5 39z" />
    <glyph glyph-name="c" unicode="c" 
d="M239 180.5q56 -95.5 158 -146.5t235 -51q85 0 180.5 32.5t147.5 89.5q18 20 18 42q0 21 -10 31t-25 10q-24 0 -41 -16q-62 -57 -124 -82t-154 -25q-158 0 -251.5 86.5t-93.5 255.5q0 101 44 173.5t127.5 111.5t199.5 39q54 0 103.5 -10t99.5 -35l5 -41q10 -88 21 -124.5
t40 -36.5t44.5 22t15.5 58q0 129 -93 189t-251 60q-125 0 -228 -49t-163.5 -141t-60.5 -216q0 -131 56 -226.5z" />
    <glyph glyph-name="d" unicode="d" 
d="M921 -3l186 20q18 4 28 16.5t10 27.5t-10 25t-30 10h-6l-148 -11v1056q0 39 -41 39q-4 0 -20 -2l-189 -19q-17 -3 -25 -15t-8 -26q0 -16 11 -27t28 -11q6 0 11 1t9 2l128 8v-384q-60 52 -126.5 79t-157.5 27q-115 0 -200.5 -53.5t-131.5 -148t-46 -213.5q0 -121 46 -215
t131.5 -147t200.5 -53q92 0 169.5 34.5t123.5 89.5l3 -60q1 -25 14 -37.5t33 -12.5h7zM855 602v-392q-101 -145 -282 -145q-90 0 -154 45t-97 121t-33 167t33 167t98 121t157 45q175 0 278 -129z" />
    <glyph glyph-name="e" unicode="e" 
d="M269 180.5q57 -95.5 159.5 -146.5t236.5 -51q85 0 182.5 33t149.5 89q18 20 18 42q0 18 -11 31t-29 13q-20 0 -41 -17q-57 -54 -129.5 -81.5t-147.5 -27.5q-154 0 -249 82t-100 240l629 5q35 0 56 24.5t21 62.5q0 107 -46.5 182t-128 113.5t-185.5 38.5
q-122 0 -222.5 -49t-160 -141t-59.5 -216q0 -131 57 -226.5zM867 652q55 -79 62 -187l-618 -4q18 128 108.5 199t236.5 71q156 0 211 -79z" />
    <glyph glyph-name="f" unicode="f" 
d="M1019.5 1174q-16.5 14 -40.5 14q-210 0 -322.5 -86.5t-112.5 -263.5v-72h-196q-20 0 -31 -12t-11 -28q0 -17 12 -29.5t34 -12.5h192v-602h-221q-20 0 -31 -12t-11 -28q0 -17 12 -29.5t34 -12.5h675q19 0 29.5 12t10.5 29q0 16 -10.5 28.5t-28.5 12.5h-362l-1 602h309
q19 0 30 12t11 29q0 16 -10.5 28.5t-29.5 12.5h-309v66q0 96 26.5 153t91 86.5t181.5 37.5v-93q0 -25 14 -38.5t33 -13.5q20 0 34.5 14.5t14.5 41.5v117q0 23 -16.5 37z" />
    <glyph glyph-name="g" unicode="g" 
d="M424.5 238.5q25.5 22.5 69 35.5t94.5 13q169 0 252.5 61t83.5 192q0 90 -57 161l169 74q70 0 101.5 14t31.5 37q0 51 -58 51q-59 0 -121 -42l-152 -101q-47 39 -109 59t-130 20q-89 0 -162.5 -29.5t-117 -90t-43.5 -148.5q0 -82 43 -130.5t129 -83.5q-29 -4 -63 -24.5
t-58 -53t-24 -68.5q0 -45 23.5 -74.5t70.5 -52.5q-53 -26 -86 -79.5t-33 -125.5q0 -110 86 -156.5t221 -46.5q107 0 200.5 26t151 79t57.5 131q0 92 -40 140t-115 65.5t-198 17.5h-93q-62 0 -94.5 10.5t-43.5 28t-11 42.5q0 26 25.5 48.5zM433.5 407.5
q-61.5 46.5 -61.5 134.5q0 95 63 142t162 47q101 0 166 -47.5t65 -149.5q0 -95 -66 -134t-171 -39q-96 0 -157.5 46.5zM797 23.5q54 -13.5 77.5 -46.5t23.5 -95q0 -78 -94.5 -114t-220.5 -36q-108 0 -158.5 31.5t-50.5 114.5q0 28 13.5 62.5t33.5 62t39 34.5h184
q99 0 153 -13.5z" />
    <glyph glyph-name="h" unicode="h" 
d="M896 82h-146q-20 0 -31 -11.5t-11 -27.5q0 -17 12 -30t34 -13h345q20 0 31 12.5t11 29.5q0 16 -10.5 28t-29.5 12h-109v451q0 134 -70 207t-211 73q-67 0 -130.5 -23t-111.5 -62.5t-73 -88.5v502q0 39 -41 39q-4 0 -20 -2l-189 -19q-16 -1 -24.5 -14t-8.5 -27
q0 -16 11 -26.5t28 -9.5l148 9v-1009h-108q-20 0 -31 -11.5t-11 -27.5q0 -17 12 -30t34 -13h303q23 0 36.5 12.5t13.5 29.5q0 16 -12.5 28t-35.5 12h-105v415q0 53 41 108t114.5 90.5t164.5 35.5q89 0 134.5 -50t45.5 -141v-458z" />
    <glyph glyph-name="i" unicode="i" 
d="M633 1030q24 -24 59 -24t58.5 24t23.5 58q0 35 -24 59t-58 24t-58.5 -24t-24.5 -59q0 -34 24 -58zM1121 12q11 12 11 29q0 16 -10.5 28.5t-29.5 12.5h-333v697q0 15 -10 23.5t-26 8.5q-8 0 -11 -1l-398 -55q-16 -2 -24 -13.5t-8 -26.5q0 -17 11 -29.5t30 -12.5l7 1
l333 45v-637h-372q-20 0 -31 -11.5t-11 -27.5q0 -17 12 -30t34 -13h796q19 0 30 12z" />
    <glyph glyph-name="j" unicode="j" 
d="M743 1030q24 -24 59 -24t58.5 24t23.5 58q0 35 -24 59t-58 24t-58.5 -24t-24.5 -59q0 -34 24 -58zM895 784q0 15 -10 22t-26 7h-520q-19 0 -29.5 -11.5t-10.5 -27.5q0 -17 11.5 -30t32.5 -13h456v-732q0 -73 -66.5 -122.5t-165 -73.5t-193.5 -24q-27 0 -42.5 -13.5
t-15.5 -31.5t14 -31t37 -13q126 0 248.5 36.5t201 105t78.5 157.5v795z" />
    <glyph glyph-name="k" unicode="k" 
d="M454 1173.5q-10 8.5 -26 8.5l-12 -1l-234 -42q-16 -2 -24 -13.5t-8 -26.5q0 -17 11 -29.5t30 -12.5q4 0 7 1l170 24v-1000h-172q-20 0 -31 -12t-11 -28q0 -17 12.5 -29.5t33.5 -12.5h334q19 0 29.5 12t10.5 29q0 16 -10.5 28.5t-28.5 12.5h-71v226l126 92l299 -318h-110
q-22 0 -34 -12t-12 -29q0 -16 11 -28.5t31 -12.5h313q19 0 29.5 12t10.5 29q0 16 -10.5 28.5t-29.5 12.5h-87l-341 364l317 246h89q16 0 28 11.5t12 25.5q0 20 -10.5 33t-30.5 13h-317q-22 0 -34 -12.5t-12 -29.5t11 -29t31 -12h103l-383 -293v751q0 15 -10 23.5z" />
    <glyph glyph-name="l" unicode="l" 
d="M672 1181l-418 -38q-16 -2 -24 -13.5t-8 -26.5q0 -17 11 -29.5t30 -12.5l7 1l353 28v-1008h-369q-20 0 -31 -12t-11 -28q0 -17 12 -29.5t34 -12.5h800q19 0 29.5 12t10.5 29q0 16 -10.5 28.5t-28.5 12.5h-340v1068q0 15 -10 23.5t-26 8.5z" />
    <glyph glyph-name="m" unicode="m" 
d="M603 13q12 -13 34 -13h166q20 0 31 12.5t11 29.5q0 16 -10.5 28t-29.5 12h-118v427q1 56 28.5 107.5t70.5 83t86 31.5q48 0 73.5 -45.5t25.5 -145.5v-497q0 -17 12 -30t34 -13h157q20 0 31 12.5t11 29.5q0 16 -10.5 28t-29.5 12h-109v451q0 92 -25 155t-67.5 94t-96.5 31
q-63 0 -117.5 -41t-89.5 -118q-22 79 -69 119t-106 40q-64 0 -114 -45.5t-79 -128.5l-5 120q-2 39 -39 39q-4 0 -18 -2l-164 -33q-17 -4 -25 -15.5t-8 -25.5q0 -16 11 -27t28 -11q10 0 20 3l108 22v-627h-108q-20 0 -31 -11.5t-11 -27.5q0 -17 12 -30t34 -13h283
q23 0 36.5 12.5t13.5 29.5q0 16 -12.5 28t-35.5 12h-85v421q2 58 28.5 110.5t67 85t83.5 32.5q48 0 76.5 -46.5t28.5 -144.5v-497q0 -17 12 -30z" />
    <glyph glyph-name="n" unicode="n" 
d="M894 82h-146q-20 0 -31 -11.5t-11 -27.5q0 -17 12 -30t34 -13h345q20 0 31 12.5t11 29.5q0 16 -10.5 28t-29.5 12h-109v451q0 134 -70 207t-211 73q-68 0 -132 -23t-113 -62.5t-74 -88.5l-5 120q-2 39 -39 39q-4 0 -18 -2l-164 -33q-17 -4 -25 -15.5t-8 -25.5
q0 -16 11 -27t28 -11q10 0 20 3l108 22v-627h-108q-20 0 -31 -11.5t-11 -27.5q0 -17 12 -30t34 -13h303q23 0 36.5 12.5t13.5 29.5q0 16 -12.5 28t-35.5 12h-105v421q0 52 41 105t114.5 88t164.5 35q89 0 134.5 -50t45.5 -141v-458z" />
    <glyph glyph-name="o" unicode="o" 
d="M249 179q53 -94 149 -145t222 -51t222 51t149 145t53 219q0 126 -53 220t-149 144.5t-222 50.5t-222 -50.5t-149 -144.5t-53 -220q0 -125 53 -219zM341.5 570.5q37.5 75.5 109 118t169.5 42.5t169.5 -42.5t109 -118t37.5 -172.5q0 -98 -37.5 -173.5t-109 -117.5
t-169.5 -42t-169.5 42t-109 117.5t-37.5 173.5q0 97 37.5 172.5z" />
    <glyph glyph-name="p" unicode="p" 
d="M357 798q-4 0 -18 -2l-164 -33q-17 -4 -25 -15.5t-8 -25.5q0 -16 11 -27t28 -11q6 0 11 1t9 2l108 21v-996h-90q-19 0 -29.5 -12t-10.5 -28q0 -17 11 -29.5t31 -12.5h396q22 0 34 13t12 30q0 16 -11 27.5t-31 11.5h-216v377q60 -52 126.5 -79t157.5 -27q115 0 200.5 53.5
t131.5 148t46 213.5q0 121 -45 215t-129.5 147t-199.5 53q-89 0 -165 -34.5t-129 -88.5l-3 69q-2 39 -39 39zM405 194v392q47 67 118.5 106t167.5 39q90 0 153 -45t95 -120.5t32 -167.5q0 -91 -33 -167t-98 -121t-157 -45q-175 0 -278 129z" />
    <glyph glyph-name="q" unicode="q" 
d="M947 785q-11 15 -30 15q-16 0 -26.5 -6t-17.5 -29t-7 -71q-52 53 -127 86t-165 33q-115 0 -199.5 -53t-129.5 -147t-45 -215q0 -119 46 -213.5t131.5 -148t200.5 -53.5q91 0 157.5 27t126.5 79v-377h-216q-20 0 -31 -11.5t-11 -27.5q0 -17 12 -30t34 -13h396
q20 0 31 12.5t11 29.5q0 16 -10.5 28t-29.5 12h-90v1012q0 46 -11 61zM743.5 692q71.5 -39 118.5 -106v-392q-103 -129 -278 -129q-92 0 -157 45t-98 121t-33 167q0 92 32 167.5t95 120.5t153 45q96 0 167.5 -39z" />
    <glyph glyph-name="r" unicode="r" 
d="M934 572.5q14 -13.5 33 -13.5q20 0 34.5 14.5t14.5 41.5v138q0 30 -20 45t-68 15q-278 0 -392 -175l-4 104q-1 28 -8.5 42t-29.5 14q-10 0 -23 -3l-171 -34q-14 -3 -22 -13.5t-8 -24.5q0 -16 10.5 -28t29.5 -12q8 0 12 1l122 25v-627h-183q-20 0 -31 -12t-11 -28
q0 -17 12 -29.5t34 -12.5h610q19 0 30 12.5t11 28.5q0 17 -10.5 29t-29.5 12h-336v444q40 100 143 152.5t237 52.5v-120q0 -25 14 -38.5z" />
    <glyph glyph-name="s" unicode="s" 
d="M342 454q55 -48 155 -67l266 -52q64 -12 91 -43.5t27 -82.5q0 -73 -60.5 -108.5t-174.5 -35.5q-85 0 -155 26t-110.5 72t-40.5 102q0 32 -9.5 42t-26.5 10q-14 0 -25 -13t-11 -39l-2 -226q0 -17 12 -28t28 -11q15 0 25.5 10.5t10.5 31.5v60q55 -63 135.5 -91t174.5 -28
q149 0 237.5 56.5t88.5 168.5q0 103 -52.5 153t-149.5 69l-259 52q-71 16 -99 44.5t-28 74.5q0 130 212 130q109 0 184.5 -31t102.5 -94q1 -47 8 -66t32 -19q20 0 29 9t11 28l2 201q0 23 -12 36t-29 13t-30 -13.5t-12 -36.5v-37q-30 39 -111 65.5t-168 26.5
q-137 0 -229.5 -52t-92.5 -175q0 -84 55 -132z" />
    <glyph glyph-name="t" unicode="t" 
d="M876 692q19 0 29.5 12t10.5 29q0 16 -10.5 28.5t-28.5 12.5h-372v239q0 22 -7 33.5t-29 11.5q-29 0 -41.5 -25.5t-15.5 -79.5t-3 -179h-147q-20 0 -31 -11.5t-11 -27.5q0 -17 12 -30t34 -13h143v-523q0 -49 35.5 -92t95 -68.5t127.5 -25.5q67 0 135 15.5t119.5 40
t72.5 49.5q5 7 5 15q0 17 -14 34t-28 17q-7 0 -11 -4q-48 -36 -123.5 -60.5t-145.5 -24.5q-77 0 -124.5 33.5t-47.5 105.5v488h371z" />
    <glyph glyph-name="u" unicode="u" 
d="M366 768q0 14 -9.5 24t-24.5 10q-4 0 -12 -2l-175 -35q-18 -4 -27 -14t-9 -24q0 -17 13 -30t33 -13q11 0 17 2l98 20v-444q0 -83 34.5 -146t100.5 -98t156 -35q94 0 181 43t131 108l5 -87q1 -25 14 -37.5t33 -12.5h7l186 20q18 4 28 16.5t10 27.5t-10 25t-30 10h-6
l-148 -11v683q0 14 -9.5 24t-24.5 10q-4 0 -12 -2l-174 -35q-19 -4 -28.5 -14.5t-9.5 -24.5q0 -17 13 -30t34 -13q9 0 18 3l97 20v-475q-22 -46 -71.5 -84t-111.5 -60t-121 -22q-97 0 -146.5 53.5t-49.5 140.5v509z" />
    <glyph glyph-name="v" unicode="v" 
d="M130 733q0 -41 42 -41h101l294 -633q21 -46 38.5 -59.5t41.5 -13.5q23 0 38.5 12.5t33.5 55.5l267 638h89q42 0 42 41t-46 41h-261q-40 0 -40 -42q0 -40 39 -40h85l-244 -600l-267 600h109q38 0 38 40q0 42 -39 42h-315q-46 0 -46 -41z" />
    <glyph glyph-name="w" unicode="w" 
d="M465 733q0 -41 42 -41h51l49 -137l-169 -463l-182 600h52q38 0 38 40q0 42 -39 42h-235q-46 0 -46 -41t42 -41h78l209 -633q15 -46 34.5 -59.5t45.5 -13.5q24 0 40 12.5t32 55.5l144 379l135 -374q17 -45 36 -59t44 -14t42 13t30 55l192 638h69q42 0 42 41t-46 41h-221
q-40 0 -40 -42q0 -40 39 -40h65l-169 -600l-212 600h109q38 0 38 40q0 42 -39 42h-254q-46 0 -46 -41z" />
    <glyph glyph-name="x" unicode="x" 
d="M1076.5 12.5q13.5 12.5 13.5 29.5q0 16 -13 28t-36 12h-71l-288 321l247 289h98q41 0 41 42q0 40 -39 40h-267q-42 0 -42 -40q0 -42 46 -42h45l-188 -223l-200 223h40q40 0 40 42q0 40 -38 40h-237q-42 0 -42 -40q0 -42 46 -42h88l250 -286l-273 -324h-84q-42 0 -42 -40
q0 -42 46 -42h247q40 0 40 42q0 40 -38 40h-59l221 258l225 -258h-80q-24 0 -37.5 -12t-13.5 -28q0 -17 14.5 -29.5t41.5 -12.5h261q24 0 37.5 12.5z" />
    <glyph glyph-name="y" unicode="y" 
d="M150 732q0 -40 41 -40h93q27 -59 115 -258q17 -38 79 -178t119 -258l-54 -139q-11 -29 -37.5 -57t-62.5 -45.5t-72 -17.5q-68 0 -68 -48q0 -24 14.5 -38t53.5 -14q107 0 177.5 73.5t121.5 204.5l303 775h79q42 0 42 41t-46 41h-265q-40 0 -40 -42q0 -40 39 -40h89
l-228 -597l-255 597h102q39 0 39 40q0 42 -41 42h-292q-46 0 -46 -42z" />
    <glyph glyph-name="z" unicode="z" 
d="M287 758q-14 -14 -14 -32v-226q0 -23 13.5 -36.5t31.5 -13.5q17 0 29 12t13 33l8 197h461l-534 -583q-17 -19 -17 -50q0 -27 14 -43t42 -16h613q19 0 35 14t16 32v269q0 20 -12 31t-29 11t-30 -10.5t-14 -27.5l-11 -237h-515l552 600q8 8 13 20.5t5 24.5q0 19 -14.5 32
t-46.5 13h-577q-18 0 -32 -14z" />
    <glyph glyph-name="braceleft" unicode="{" 
d="M622 1135.5q25 27.5 81 39t157 11.5q13 0 20.5 12.5t7.5 29.5t-7.5 29.5t-20.5 12.5q-156 0 -233 -25.5t-101 -74.5t-24 -136q0 -50 8.5 -97t24.5 -111q15 -58 22 -95t7 -74q0 -39 -26 -55.5t-97 -16.5q-23 0 -35 -16.5t-12 -39.5q0 -25 13 -43.5t34 -18.5q69 0 96 -20.5
t27 -61.5q0 -37 -7 -74t-22 -95q-16 -64 -24.5 -111t-8.5 -97q0 -87 24 -135.5t101 -74t233 -25.5q13 0 20.5 12.5t7.5 29.5t-7.5 29.5t-20.5 12.5q-101 0 -157 11.5t-81 39t-25 77.5q0 39 7.5 83.5t21.5 107.5q16 76 23.5 120.5t7.5 88.5q0 40 -4.5 65t-24 46t-60.5 30
q41 8 60.5 26.5t24 42.5t4.5 63q0 44 -7.5 88.5t-23.5 120.5q-14 63 -21.5 107.5t-7.5 83.5q0 50 25 77.5z" />
    <glyph glyph-name="bar" unicode="|" 
d="M639 -56q0 -56 60 -56q22 0 41 12.5t19 32.5v1275q-2 23 -17.5 36t-40.5 13t-43.5 -13t-18.5 -36v-1264z" />
    <glyph glyph-name="braceright" unicode="}" 
d="M649 -92.5q-25 -27.5 -81 -39t-157 -11.5q-13 0 -20.5 -12.5t-7.5 -29.5t7.5 -29.5t20.5 -12.5q156 0 233 25.5t101 74.5t24 136q0 50 -8.5 97t-24.5 111q-15 58 -22 95t-7 74q0 39 26 55.5t97 16.5q23 0 35 16.5t12 39.5q0 25 -13 43.5t-34 18.5q-69 0 -96 20.5
t-27 61.5q0 37 7 74t22 95q16 64 24.5 111t8.5 97q0 87 -24 135.5t-101 74t-233 25.5q-13 0 -20.5 -12.5t-7.5 -29.5t7.5 -29.5t20.5 -12.5q101 0 157 -11.5t81 -39t25 -77.5q0 -39 -7.5 -83.5t-21.5 -107.5q-16 -76 -23.5 -120.5t-7.5 -88.5q0 -40 4.5 -65t24 -46t60.5 -30
q-41 -8 -60.5 -26.5t-24 -42.5t-4.5 -63q0 -44 7.5 -88.5t23.5 -120.5q14 -63 21.5 -107.5t7.5 -83.5q0 -50 -25 -77.5z" />
    <glyph glyph-name="asciitilde" unicode="~" 
d="M418.5 700q7.5 9 19.5 32q17 33 34 51t49 18q26 0 56.5 -12.5t83.5 -39.5q65 -34 113.5 -52.5t97.5 -18.5t89 25t63.5 69t23.5 100q0 18 -14 27t-36 9q-15 0 -25 -10t-25 -32q-22 -33 -43.5 -50.5t-58.5 -17.5q-15 0 -35.5 9.5t-56.5 29.5q-67 39 -126 62t-127 23
q-41 0 -75.5 -25.5t-55 -70t-20.5 -99.5q0 -18 14.5 -27t35.5 -9q11 0 18.5 9z" />
    <glyph glyph-name="uni0091" 
 />
    <glyph glyph-name="uni0092" 
 />
    <glyph glyph-name="uni0093" 
 />
    <glyph glyph-name="uni0094" 
 />
    <glyph glyph-name="uni009A" 
 />
    <glyph glyph-name="uni009B" 
 />
    <glyph glyph-name="uni009D" 
 />
    <glyph glyph-name="uni00A0" unicode="&#xa0;" 
 />
    <glyph glyph-name="exclamdown" unicode="&#xa1;" 
d="M548 700.5q29 -28.5 72 -28.5t72.5 28.5t29.5 71.5t-29.5 72.5t-72.5 29.5t-72 -29.5t-29 -72.5t29 -71.5zM668 -303.5q17 18.5 17 65.5q0 78 -5.5 159t-15.5 192q-11 134 -16 211.5t-5 160.5q0 19 -6 27.5t-18 8.5t-18 -8t-6 -28q0 -83 -5 -167t-15 -206
q-10 -121 -15 -197.5t-5 -152.5q0 -47 17 -65.5t47 -18.5q32 0 49 18.5z" />
    <glyph glyph-name="cent" unicode="&#xa2;" 
d="M968 178q10 -10 10 -31q0 -22 -18 -42q-48 -52 -133 -83.5t-167 -37.5v-173q0 -24 -5 -35.5t-21 -11.5q-17 0 -22 10t-5 36v173q-127 5 -222.5 57t-148.5 146t-53 221q0 119 56 209t152.5 140t215.5 56v139q0 21 5 30t22 9t21.5 -7.5t4.5 -26.5v-143q148 -5 233.5 -65.5
t85.5 -183.5q0 -36 -15.5 -58t-44.5 -22t-40 36.5t-21 124.5l-5 41q-88 43 -193 45v-665q76 4 131.5 29.5t110.5 76.5q17 16 41 16q15 0 25 -10zM367.5 156.5q88.5 -86.5 239.5 -91.5v665q-156 -11 -242 -96t-86 -227q0 -164 88.5 -250.5z" />
    <glyph glyph-name="sterling" unicode="&#xa3;" 
d="M491 6q50 22 96 66q75 -49 128.5 -69t132.5 -20q91 0 145 18.5t54 80.5q0 21 -16 39t-36 18q-25 0 -44.5 -15t-42.5 -41q-12 -15 -20.5 -22.5t-15.5 -7.5q-71 0 -122.5 15.5t-105.5 59.5q30 60 30 135q0 78 -27.5 151t-69.5 150q-23 44 -26 54h205q11 0 18 12t7 27
t-6.5 26.5t-17.5 11.5h-235q-30 64 -47 118t-17 110q0 66 28 110.5t72 66t93 21.5q43 0 72.5 -15t46.5 -35t34 -50q15 -25 23.5 -34.5t21.5 -9.5q34 0 59 21.5t25 54.5q0 18 -4.5 26.5t-17.5 24.5q-39 47 -101.5 63.5t-160.5 16.5q-79 0 -147 -33t-108.5 -93t-40.5 -137
q0 -49 12.5 -86.5t38.5 -89.5q19 -41 23 -50h-142q-11 0 -17 -10.5t-6 -26.5t7 -28t18 -12h169q39 -49 68.5 -119.5t45.5 -143t16 -126.5q0 -45 -12 -68q-44 46 -92 68t-92 22q-60 0 -100 -34.5t-40 -86.5q0 -67 41 -106.5t104 -39.5q46 0 96 22zM329 128q2 25 19.5 44
t47.5 19q57 0 135 -75q-67 -68 -127 -68q-34 0 -54.5 21t-20.5 53v6z" />
    <glyph glyph-name="currency" unicode="&#xa4;" 
d="M768 362l89 -89q12 -12 25 -12q12 0 20.5 9t8.5 21q0 13 -11 24l-90 90q26 33 39.5 74t13.5 84q0 87 -46 152l84 84q11 11 11 25q0 12 -9 21t-21 9q-13 0 -24 -11l-84 -83q-64 51 -158 51q-92 0 -159 -51l-85 85q-11 11 -25 11q-12 0 -21 -8.5t-9 -20.5q0 -13 11 -24
l86 -86q-26 -33 -39.5 -74.5t-13.5 -84.5q0 -44 13.5 -85t39.5 -73l-86 -86q-11 -11 -11 -24q0 -12 9 -21t21 -9q13 0 24 11l88 87q63 -45 152 -45q92 0 157 49zM477.5 700.5q47.5 55.5 137.5 55.5t138 -55.5t48 -140.5q0 -84 -48.5 -138t-136.5 -54q-58 0 -100 25.5
t-64 69.5t-22 97q0 85 47.5 140.5z" />
    <glyph glyph-name="yen" unicode="&#xa5;" 
d="M1012 1095h55q23 0 36 11t13 26q0 16 -13.5 27.5t-37.5 11.5h-261q-23 0 -37 -11.5t-14 -26.5t13.5 -26.5t36.5 -11.5h111l-268 -462l-276 462h136q23 0 36.5 11.5t13.5 26.5t-13.5 26.5t-37.5 11.5h-330q-23 0 -37 -11.5t-14 -26.5t13.5 -26.5t36.5 -11.5h84l320 -517
h-260q-39 0 -39 -36t39 -36h275v-137h-275q-39 0 -39 -36t39 -36h275v-211h-261q-23 0 -36.5 -12.5t-13.5 -29.5q0 -18 14 -31t38 -13h585q23 0 36.5 13t13.5 31q0 17 -12.5 29.5t-35.5 12.5h-232v211h267q39 0 39 36t-39 36h-267v137h267q39 0 39 36t-39 36h-249z" />
    <glyph glyph-name="brokenbar" unicode="&#xa6;" 
d="M651 1195q-13 8 -30 8q-18 0 -31 -8t-13 -23v-468q0 -11 13 -18t31 -7q17 0 30 7t13 18v468q0 15 -13 23zM651 435q-13 8 -30 8q-18 0 -31 -8t-13 -23v-468q0 -12 13 -18.5t31 -6.5q17 0 30 6.5t13 18.5v468q0 15 -13 23z" />
    <glyph glyph-name="section" unicode="&#xa7;" 
d="M432 758q-24 -49 -24 -107q0 -53 21.5 -97t58.5 -89q30 -36 81 -87q46 -48 73 -78t48 -66q22 -38 22 -82q0 -42 -32.5 -69t-78.5 -27q-44 0 -74.5 22.5t-45.5 61.5q-5 14 -17.5 22.5t-28.5 8.5q-18 0 -29.5 -11t-11.5 -29q0 -44 32 -77.5t81.5 -52t99.5 -18.5
q57 0 101.5 23.5t70 65.5t25.5 96q0 47 -19.5 90t-50.5 88q43 20 67 69t24 107q0 53 -21 96t-58 89q-29 35 -79 85q-47 48 -74.5 79.5t-48.5 67.5q-23 38 -23 81q0 42 32.5 69.5t77.5 27.5q44 0 75.5 -22.5t46.5 -61.5q5 -14 17.5 -22.5t29.5 -8.5q18 0 29 10.5t11 28.5
q0 44 -32 78t-81.5 52.5t-99.5 18.5q-56 0 -101.5 -23.5t-71.5 -66t-26 -95.5q0 -48 20 -91t52 -87q-44 -20 -68 -69zM736 484q0 -26 -10 -52.5t-28 -40.5q-16 19 -29.5 34.5t-24.5 27.5q-46 50 -74 85.5t-50 74.5t-22 77q0 26 10 51.5t28 40.5q19 -24 59 -68t68 -80t50 -74
q23 -40 23 -76z" />
    <glyph glyph-name="dieresis" unicode="&#xa8;" 
d="M473 1002q24 -24 59 -24t58.5 24t23.5 58q0 35 -24 59t-58 24t-58.5 -24t-24.5 -59q0 -34 24 -58zM808 1002q24 -24 59 -24t58.5 24t23.5 58q0 35 -24 59t-58 24t-58.5 -24t-24.5 -59q0 -34 24 -58z" />
    <glyph glyph-name="copyright" unicode="&#xa9;" 
d="M311.5 1089.5q-128.5 -68.5 -196 -198t-67.5 -310.5q0 -180 67.5 -307.5t196 -194t308.5 -66.5t308.5 66.5t196.5 194t68 307.5q0 181 -68 310.5t-196.5 198t-308.5 68.5t-308.5 -68.5zM986.5 957q126.5 -132 126.5 -374q0 -240 -126 -370t-367 -130t-366.5 129.5
t-125.5 370.5q0 159 56 272.5t166 173.5t270 60q240 0 366.5 -132zM915 468.5q-9 7.5 -21 7.5q-19 0 -28 -20q-31 -76 -91 -117t-148 -41q-74 0 -131.5 35t-90 102.5t-32.5 161.5q0 81 32 146.5t90.5 103t135.5 37.5q84 0 137 -37.5t77 -116.5q8 -27 30 -27q11 0 19.5 7
t8.5 20v178q0 14 -9 22t-21 8t-21.5 -8t-9.5 -21v-70q-25 46 -82.5 76.5t-128.5 30.5q-95 0 -172 -45t-121.5 -125t-44.5 -180q0 -110 42.5 -192.5t118 -127t173.5 -44.5q79 0 142.5 31t102.5 80t51 100l1 6q0 12 -9 19.5z" />
    <glyph glyph-name="ordfeminine" unicode="&#xaa;" 
d="M734 582l-47 -3q-110 -7 -174 -18.5t-108 -47t-44 -105.5q0 -69 42 -110.5t117 -41.5q69 0 127.5 25t91.5 62q7 -48 30.5 -64.5t58.5 -16.5q29 0 56.5 13t49.5 36q7 7 7 17q0 11 -7.5 19.5t-17.5 8.5q-9 0 -16 -8q-11 -12 -30.5 -22.5t-36.5 -10.5q-35 0 -35 41v209
q0 82 -17.5 135.5t-60.5 82.5t-120 29q-68 0 -120.5 -18t-81.5 -50t-29 -73q0 -21 10 -34.5t29 -13.5q22 0 32 26.5t12 77.5q35 16 70 23t77 7q75 0 105 -41t30 -120v-14zM642.5 333.5q-56.5 -22.5 -115.5 -22.5q-46 0 -73.5 23t-27.5 74q0 47 31.5 71t85.5 33.5t163 20.5
l28 3v-142q-35 -38 -91.5 -60.5z" />
    <glyph glyph-name="guillemotleft" unicode="&#xab;" 
d="M619 212.5q11 10.5 11 25.5q0 26 -31 49l-330 244l321 246q24 18 24 39q0 15 -11.5 25.5t-28.5 10.5q-14 0 -30 -11l-334 -255q-38 -29 -38 -56q0 -26 38 -55l344 -259q18 -14 38 -14q16 0 27 10.5zM983 212.5q11 10.5 11 25.5q0 26 -31 49l-330 244l321 246q24 18 24 39
q0 15 -11.5 25.5t-28.5 10.5q-14 0 -30 -11l-334 -255q-38 -29 -38 -56q0 -26 38 -55l344 -259q18 -14 38 -14q16 0 27 10.5z" />
    <glyph glyph-name="logicalnot" unicode="&#xac;" 
d="M264 472q12 -12 37 -12h520v-250q0 -25 14 -38.5t33 -13.5q20 0 35 15t15 41v274q0 28 -15.5 43t-44.5 15h-557q-24 0 -36.5 -13t-12.5 -31t12 -30z" />
    <glyph glyph-name="uni00AD" unicode="&#xad;" 
d="M312 520.5q-12 -12.5 -12 -30.5q0 -17 12 -30t33 -13h550q21 0 33 13t12 30q0 18 -12 30.5t-33 12.5h-550q-21 0 -33 -12.5z" />
    <glyph glyph-name="registered" unicode="&#xae;" 
d="M311.5 1089.5q-128.5 -68.5 -196 -198t-67.5 -310.5q0 -180 67.5 -307.5t196 -194t308.5 -66.5t308.5 66.5t196.5 194t68 307.5q0 181 -68 310.5t-196.5 198t-308.5 68.5t-308.5 -68.5zM986.5 957q126.5 -132 126.5 -374q0 -240 -126 -370t-367 -130t-366.5 129.5
t-125.5 370.5q0 159 56 272.5t166 173.5t270 60q240 0 366.5 -132zM514 301v264h47q21 0 63 3.5t47 5.5l88 -273h-29q-13 0 -20 -8.5t-7 -18.5q0 -11 7.5 -20t21.5 -9h147q19 0 27.5 9t8.5 20t-8.5 19t-28.5 8h-37l-104 286q49 19 81.5 59t32.5 103q0 77 -33 118t-91.5 55.5
t-148.5 14.5h-182q-14 0 -21.5 -9.5t-7.5 -20.5t7.5 -20t20.5 -9h48v-577h-64q-13 0 -20.5 -8.5t-7.5 -19.5q0 -10 8 -19t21 -9h225q13 0 20.5 9t7.5 19q0 11 -7.5 19.5t-20.5 8.5h-91zM564 878q77 0 121.5 -9t69 -37.5t24.5 -86.5q0 -55 -29.5 -81t-70 -32.5t-106.5 -7.5
l-59 -1v255h50z" />
    <glyph glyph-name="macron" unicode="&#xaf;" 
d="M917.5 1108q-12.5 11 -36.5 11h-361q-50 0 -50 -43q0 -21 12 -32t39 -11h362q47 0 47 43q0 21 -12.5 32z" />
    <glyph glyph-name="degree" unicode="&#xb0;" 
d="M476.5 748q28.5 -56 85.5 -90.5t136 -34.5t136.5 35.5t86.5 93t29 121.5q0 65 -28 121.5t-84 91.5t-135 35q-80 0 -137.5 -36t-87.5 -94t-30 -123q0 -64 28.5 -120zM596.5 980q36.5 44 105.5 44t106 -44t37 -110q0 -65 -35.5 -108t-102.5 -43q-45 0 -78 20.5t-51 55
t-18 75.5q0 66 36.5 110z" />
    <glyph glyph-name="plusminus" unicode="&#xb1;" 
d="M669 804q0 25 -14 38.5t-34 13.5t-34 -13.5t-14 -38.5v-246h-257q-22 0 -32.5 -12t-10.5 -29q0 -18 10.5 -29.5t32.5 -11.5h257v-241q0 -25 14 -38.5t34 -13.5t34 13.5t14 38.5v241h255q23 0 33 11.5t10 29.5q0 17 -10 29t-33 12h-255v246zM283 11.5q10 -11.5 33 -11.5
h608q22 0 32.5 11.5t10.5 29.5q0 17 -10 29t-33 12h-608q-23 0 -33 -12t-10 -29q0 -18 10 -29.5z" />
    <glyph glyph-name="uni00B2" unicode="&#xb2;" 
d="M511.5 1168.5q-43.5 -18.5 -70.5 -55t-27 -88.5q0 -28 9 -45.5t27 -17.5t24.5 24t12.5 90q0 7 2 25q58 32 120 32t101.5 -34.5t39.5 -97.5q0 -34 -18.5 -67.5t-46 -63t-76.5 -75.5q-61 -57 -99 -99.5t-64.5 -96.5t-26.5 -115q0 -11 4 -29h382q14 0 23 10.5t9 29.5v124
q0 20 -7.5 30t-19.5 10t-21 -9.5t-10 -25.5l-7 -104h-281q15 64 56 114.5t113 115.5q55 51 86 85t53 77.5t22 94.5q0 57 -31 97.5t-80.5 61.5t-103.5 21q-51 0 -94.5 -18.5z" />
    <glyph glyph-name="uni00B3" unicode="&#xb3;" 
d="M753 753.5q45 -42.5 45 -116.5q0 -56 -25 -100.5t-71 -69.5t-108 -25q-43 0 -66 7.5t-45 21.5q-15 10 -26 14.5t-28 4.5q-12 0 -20.5 -8.5t-8.5 -16.5q0 -22 28.5 -42t73.5 -32.5t90 -12.5q76 0 139.5 33t100 91t36.5 131q0 92 -55 150t-154 62q164 80 164 187
q0 72 -52 113.5t-131 41.5q-38 0 -88 -12.5t-86 -36t-36 -54.5q0 -10 8 -17.5t22 -7.5q20 0 30 5.5t22 18.5q18 19 43 30t83 11q57 0 86 -26.5t29 -65.5q0 -32 -18 -57.5t-46.5 -45.5t-82.5 -52l-48 -29q-22 -13 -22 -30q0 -13 7.5 -20.5t20.5 -7.5l23 2q28 4 44 4
q77 0 122 -42.5z" />
    <glyph glyph-name="acute" unicode="&#xb4;" 
d="M852.5 1285q-19.5 20 -42.5 20q-17 0 -31 -14l-271 -276q-7 -7 -7 -15q0 -9 7.5 -15.5t16.5 -6.5q7 0 11 4l322 234q14 10 14 28q0 21 -19.5 41z" />
    <glyph glyph-name="uni00B5" unicode="&#xb5;" 
d="M366 768q0 14 -9.5 24t-24.5 10q-4 0 -12 -2l-175 -35q-18 -4 -27 -14t-9 -24q0 -17 13 -30t33 -13q11 0 17 2l98 20v-962q0 -41 15 -64t42 -23q24 0 42 16t18 49q0 5 -2 21q-11 61 -48 328q38 -42 95 -65t129 -23q94 0 181 43t131 108l5 -87q1 -25 14 -37.5t33 -12.5h7
l186 20q18 4 28 16.5t10 27.5t-10 25t-30 10h-6l-148 -11v683q0 14 -9.5 24t-24.5 10q-4 0 -12 -2l-174 -35q-19 -4 -28.5 -14.5t-9.5 -24.5q0 -17 13 -30t34 -13q9 0 18 3l97 20v-475q-22 -46 -71.5 -84t-111.5 -60t-121 -22q-97 0 -146.5 53.5t-49.5 140.5v509z" />
    <glyph glyph-name="paragraph" unicode="&#xb6;" 
d="M375.5 1133.5q-72.5 -37.5 -108 -98.5t-35.5 -132q0 -74 37 -141t107 -109t164 -42v-529h-209q-19 0 -29 -11.5t-10 -27.5q0 -17 11 -30t30 -13h738q19 0 30 13t11 30q0 16 -10 27.5t-29 11.5h-181l-2 1089h-336q-106 0 -178.5 -37.5zM636 1089h158v-1007h-158v1007z" />
    <glyph glyph-name="periodcentered" unicode="&#xb7;" 
d="M640 539q24 -24 59 -24t58.5 24t23.5 58q0 35 -24 59t-58 24t-58.5 -24t-24.5 -59q0 -34 24 -58z" />
    <glyph glyph-name="cedilla" unicode="&#xb8;" 
d="M36 -306q-8 -24 -8 -41q0 -25 13 -39.5t36 -14.5q22 0 39.5 19t22.5 61l41 321h-37z" />
    <glyph glyph-name="uni00B9" unicode="&#xb9;" 
d="M614 1171l-173 -76q-17 -7 -17 -25q0 -12 8.5 -22t20.5 -10q6 0 12 3l124 55v-641h-124q-14 0 -22.5 -9t-8.5 -20q0 -12 9 -21t25 -9h295q14 0 21.5 8.5t7.5 20.5t-7.5 21t-20.5 9h-106v685q0 17 -8.5 25.5t-21.5 8.5q-8 0 -14 -3z" />
    <glyph glyph-name="ordmasculine" unicode="&#xba;" 
d="M942.5 399q-34.5 62 -96.5 96t-144 34q-83 0 -147 -33.5t-99 -95.5t-35 -145t35.5 -145t99 -96t146.5 -34q82 0 144 34t96.5 96.5t34.5 144.5t-34.5 144zM831.5 112.5q-46.5 -55.5 -129.5 -55.5q-85 0 -132.5 54.5t-47.5 143.5q0 88 47.5 142t132.5 54q83 0 129.5 -54.5
t46.5 -141.5t-46.5 -142.5z" />
    <glyph glyph-name="guillemotright" unicode="&#xbb;" 
d="M205 834.5q-11 -10.5 -11 -25.5q0 -26 31 -49l330 -244l-321 -246q-24 -18 -24 -39q0 -15 11.5 -25.5t28.5 -10.5q14 0 30 11l334 255q38 29 38 56q0 26 -38 55l-344 259q-18 14 -38 14q-16 0 -27 -10.5zM569 834.5q-11 -10.5 -11 -25.5q0 -26 31 -49l330 -244l-321 -246
q-24 -18 -24 -39q0 -15 11.5 -25.5t28.5 -10.5q14 0 30 11l334 255q38 29 38 56q0 26 -38 55l-344 259q-18 14 -38 14q-16 0 -27 -10.5z" />
    <glyph glyph-name="onequarter" unicode="&#xbc;" 
d="M225 1116l-174 -76q-17 -7 -17 -25q0 -12 9 -22.5t21 -10.5q6 0 12 3l123 56v-642h-124q-14 0 -22 -8.5t-8 -19.5q0 -12 8.5 -21.5t24.5 -9.5h296q14 0 21.5 9t7.5 21t-7.5 20.5t-20.5 8.5h-106v686q0 17 -8.5 25.5t-21.5 8.5q-8 0 -14 -3zM329.5 43q10.5 -9 24.5 -9
q17 0 28 18l610 1018q4 8 4 16q0 13 -10.5 21t-24.5 8q-18 0 -27 -16l-612 -1020q-3 -5 -3 -14q0 -13 10.5 -22zM1180.5 10.5q7.5 9.5 7.5 22.5q0 12 -7.5 21t-20.5 9h-124v182h117q14 0 21.5 8.5t7.5 19.5t-7 19.5t-20 8.5h-119v461q0 23 -9 32.5t-22 9.5q-9 0 -17.5 -3.5
t-10.5 -6.5l-309 -493q-8 -13 -8 -22q0 -13 9.5 -23.5t20.5 -10.5h271v-182h-176q-12 0 -19 -9.5t-7 -21.5q0 -13 7 -22t20 -9h373q14 0 21.5 9.5zM961 301h-218l218 366v-366z" />
    <glyph glyph-name="onehalf" unicode="&#xbd;" 
d="M225 1116l-174 -76q-17 -7 -17 -25q0 -12 9 -22.5t21 -10.5q6 0 12 3l123 56v-642h-124q-14 0 -22 -8.5t-8 -19.5q0 -12 8.5 -21.5t24.5 -9.5h296q14 0 21.5 9t7.5 21t-7.5 20.5t-20.5 8.5h-106v686q0 17 -8.5 25.5t-21.5 8.5q-8 0 -14 -3zM302.5 43q10.5 -9 24.5 -9
q17 0 28 18l610 1018q4 8 4 16q0 13 -10.5 21t-24.5 8q-18 0 -27 -16l-612 -1020q-3 -5 -3 -14q0 -13 10.5 -22zM857.5 713.5q-43.5 -18.5 -70.5 -55t-27 -88.5q0 -28 9 -45.5t27 -17.5t24.5 24t12.5 90q0 7 2 25q60 33 120 33q62 0 101.5 -35t39.5 -98q0 -34 -18.5 -67.5
t-46 -63t-76.5 -75.5q-61 -57 -99 -99.5t-64.5 -96.5t-26.5 -115q0 -11 4 -29h382q14 0 23 10.5t9 29.5v124q0 20 -7.5 30t-19.5 10t-21 -9.5t-10 -25.5l-7 -104h-281q15 64 56 114.5t113 115.5q55 51 86 85t53 77.5t22 94.5q0 57 -31 97.5t-80.5 61.5t-103.5 21
q-51 0 -94.5 -18.5z" />
    <glyph glyph-name="threequarters" unicode="&#xbe;" 
d="M368.5 688.5q44.5 -42.5 44.5 -116.5q0 -56 -24.5 -100.5t-70.5 -69.5t-108 -25q-43 0 -66 7.5t-45 21.5q-15 10 -26 14.5t-28 4.5q-12 0 -20.5 -8.5t-8.5 -16.5q0 -22 28.5 -42t73.5 -32.5t90 -12.5q76 0 139.5 33t100 91t36.5 131q0 92 -55 150t-154 62q164 80 164 187
q0 72 -52 113.5t-131 41.5q-38 0 -88 -12.5t-86 -36t-36 -54.5q0 -10 8 -17.5t22 -7.5q20 0 30 5.5t22 18.5q17 20 42.5 30.5t83.5 10.5q57 0 85.5 -26.5t28.5 -65.5q0 -33 -18 -58.5t-46.5 -45.5t-82.5 -52l-47 -28q-22 -13 -22 -30q0 -13 7.5 -20.5t20.5 -7.5l23 2
q28 4 44 4q77 0 121.5 -42.5zM348.5 43q10.5 -9 24.5 -9q17 0 28 18l610 1018q4 8 4 16q0 13 -10.5 21t-24.5 8q-18 0 -27 -16l-612 -1020q-3 -5 -3 -14q0 -13 10.5 -22zM1204.5 10.5q7.5 9.5 7.5 22.5q0 12 -7.5 21t-20.5 9h-124v182h117q14 0 21.5 8.5t7.5 19.5t-7 19.5
t-20 8.5h-119v461q0 23 -9 32.5t-22 9.5q-9 0 -17.5 -3.5t-10.5 -6.5l-309 -493q-8 -13 -8 -22q0 -13 9.5 -23.5t20.5 -10.5h271v-182h-176q-12 0 -19 -9.5t-7 -21.5q0 -13 7 -22t20 -9h373q14 0 21.5 9.5zM985 301h-218l218 366v-366z" />
    <glyph glyph-name="questiondown" unicode="&#xbf;" 
d="M584 947.5q29 -28.5 72 -28.5t72.5 29t29.5 72t-29.5 72.5t-72.5 29.5t-72 -30t-29 -73t29 -71.5zM774.5 -49q61.5 26 96 75.5t34.5 115.5q0 35 -12 57.5t-37 22.5q-28 0 -42.5 -23.5t-19.5 -56t-8 -85.5l-2 -26q-38 -17 -74 -23t-75 -6q-66 0 -115 25t-75.5 70
t-26.5 104q0 19 3 38q7 49 27.5 89t46 69.5t67.5 72.5q45 45 71.5 77t44.5 75.5t18 97.5q0 28 -6 41.5t-28 13.5q-19 0 -25.5 -13.5t-6.5 -42.5q0 -38 -18.5 -71.5t-46.5 -62t-76 -69.5q-60 -52 -98 -92.5t-64.5 -95t-26.5 -121.5q0 -91 42.5 -154.5t117.5 -95.5t172 -32
q81 0 142.5 26z" />
    <glyph glyph-name="Agrave" unicode="&#xc0;" 
d="M511 1642q-11 10 -28 10q-22 0 -40 -18t-18 -39q0 -18 19 -31l79 -50q185 -116 261 -160q4 -4 12 -4q13 0 23 11t10 24q0 15 -10 21q-150 100 -308 236zM475.5 12.5q13.5 12.5 13.5 30.5q0 17 -13.5 30t-36.5 13h-159l112 306h483l107 -306h-186q-23 0 -36 -12.5
t-13 -29.5q0 -18 13.5 -31t37.5 -13h366q23 0 36.5 13t13.5 31q0 17 -12.5 29.5t-35.5 12.5h-79l-362 1020q-23 65 -81 65h-303q-23 0 -36 -13t-13 -30q0 -18 13 -30.5t37 -12.5h217l-385 -999h-85q-23 0 -36 -13t-13 -30q0 -18 13 -30.5t37 -12.5h348q24 0 37.5 12.5z
M646 1072l199 -597h-420z" />
    <glyph glyph-name="Aacute" unicode="&#xc1;" 
d="M792.5 1657q-19.5 20 -42.5 20q-17 0 -31 -14l-271 -276q-7 -7 -7 -15q0 -9 7.5 -15.5t16.5 -6.5q7 0 11 4l322 234q14 10 14 28q0 21 -19.5 41zM475.5 12.5q13.5 12.5 13.5 30.5q0 17 -13.5 30t-36.5 13h-159l112 306h483l107 -306h-186q-23 0 -36 -12.5t-13 -29.5
q0 -18 13.5 -31t37.5 -13h366q23 0 36.5 13t13.5 31q0 17 -12.5 29.5t-35.5 12.5h-79l-362 1020q-23 65 -81 65h-303q-23 0 -36 -13t-13 -30q0 -18 13 -30.5t37 -12.5h217l-385 -999h-85q-23 0 -36 -13t-13 -30q0 -18 13 -30.5t37 -12.5h348q24 0 37.5 12.5zM646 1072
l199 -597h-420z" />
    <glyph glyph-name="Acircumflex" unicode="&#xc2;" 
d="M412 1396q-7 -7 -7 -17q0 -12 11.5 -20.5t25.5 -8.5q17 0 23 9l162 209l163 -209q6 -9 23 -9q14 0 25.5 8.5t11.5 20.5q0 10 -7 17l-184 283q-4 6 -13 9t-19 3q-24 0 -31 -12zM475.5 12.5q13.5 12.5 13.5 30.5q0 17 -13.5 30t-36.5 13h-159l112 306h483l107 -306h-186
q-23 0 -36 -12.5t-13 -29.5q0 -18 13.5 -31t37.5 -13h366q23 0 36.5 13t13.5 31q0 17 -12.5 29.5t-35.5 12.5h-79l-362 1020q-23 65 -81 65h-303q-23 0 -36 -13t-13 -30q0 -18 13 -30.5t37 -12.5h217l-385 -999h-85q-23 0 -36 -13t-13 -30q0 -18 13 -30.5t37 -12.5h348
q24 0 37.5 12.5zM646 1072l199 -597h-420z" />
    <glyph glyph-name="Atilde" unicode="&#xc3;" 
d="M389.5 1376.5q13.5 -8.5 27.5 -8.5q16 0 22 12q14 34 29 51t34 17q6 0 9 -1q26 -6 90 -40q40 -20 68 -33t56 -20q18 -4 27 -4q78 0 126 125q3 14 -14 26t-34 12q-13 0 -17 -8t-15.5 -30t-23.5 -34t-26 -12t-38.5 11t-64.5 32l-37 18.5t-52 23.5t-40 12q-12 2 -16 2
q-29 0 -58 -20.5t-47.5 -51.5t-18.5 -60q0 -11 13.5 -19.5zM475.5 12.5q13.5 12.5 13.5 30.5q0 17 -13.5 30t-36.5 13h-159l112 306h483l107 -306h-186q-23 0 -36 -12.5t-13 -29.5q0 -18 13.5 -31t37.5 -13h366q23 0 36.5 13t13.5 31q0 17 -12.5 29.5t-35.5 12.5h-79
l-362 1020q-23 65 -81 65h-303q-23 0 -36 -13t-13 -30q0 -18 13 -30.5t37 -12.5h217l-385 -999h-85q-23 0 -36 -13t-13 -30q0 -18 13 -30.5t37 -12.5h348q24 0 37.5 12.5zM646 1072l199 -597h-420z" />
    <glyph glyph-name="Adieresis" unicode="&#xc4;" 
d="M401 1333q24 -24 59 -24t58.5 24t23.5 58q0 35 -24 59t-58 24t-58.5 -24t-24.5 -59q0 -34 24 -58zM736 1333q24 -24 59 -24t58.5 24t23.5 58q0 35 -24 59t-58 24t-58.5 -24t-24.5 -59q0 -34 24 -58zM475.5 12.5q13.5 12.5 13.5 30.5q0 17 -13.5 30t-36.5 13h-159l112 306
h483l107 -306h-186q-23 0 -36 -12.5t-13 -29.5q0 -18 13.5 -31t37.5 -13h366q23 0 36.5 13t13.5 31q0 17 -12.5 29.5t-35.5 12.5h-79l-362 1020q-23 65 -81 65h-303q-23 0 -36 -13t-13 -30q0 -18 13 -30.5t37 -12.5h217l-385 -999h-85q-23 0 -36 -13t-13 -30q0 -18 13 -30.5
t37 -12.5h348q24 0 37.5 12.5zM646 1072l199 -597h-420z" />
    <glyph glyph-name="Aring" unicode="&#xc5;" 
d="M476 1262.5q20 -38.5 58.5 -62.5t92.5 -24t93 24.5t59 63.5t20 83t-19.5 82.5t-57.5 62.5t-92 24q-55 0 -94 -24.5t-59.5 -64t-20.5 -83.5q0 -43 20 -81.5zM557 1420q25 30 72 30q46 0 71.5 -30t25.5 -75t-24 -74.5t-70 -29.5t-73 30.5t-27 73.5q0 45 25 75zM475.5 12.5
q13.5 12.5 13.5 30.5q0 17 -13.5 30t-36.5 13h-159l112 306h483l107 -306h-186q-23 0 -36 -12.5t-13 -29.5q0 -18 13.5 -31t37.5 -13h366q23 0 36.5 13t13.5 31q0 17 -12.5 29.5t-35.5 12.5h-79l-362 1020q-23 65 -81 65h-303q-23 0 -36 -13t-13 -30q0 -18 13 -30.5
t37 -12.5h217l-385 -999h-85q-23 0 -36 -13t-13 -30q0 -18 13 -30.5t37 -12.5h348q24 0 37.5 12.5zM646 1072l199 -597h-420z" />
    <glyph glyph-name="AE" unicode="&#xc6;" 
d="M434.5 12.5q13.5 12.5 13.5 30.5q0 17 -13.5 30t-36.5 13h-167l96 306h315v-307h-30q-23 0 -36.5 -12.5t-13.5 -29.5t13.5 -30t37.5 -13h446q25 0 40.5 14t15.5 39v230q0 25 -12.5 38.5t-29.5 13.5q-16 0 -28 -11t-13 -28l-16 -211h-287v475h142l13 -108q1 -20 13 -31.5
t27 -11.5q16 0 27 13t11 38v272q0 26 -11 39.5t-27 13.5q-15 0 -26.5 -12t-13.5 -33l-13 -103h-142v448h284l14 -198q1 -18 12 -28t27 -10t28 11.5t12 32.5v224q0 25 -15.5 39.5t-40.5 14.5h-750q-23 0 -36 -13t-13 -30q0 -18 13 -30.5t37 -12.5h162l-325 -999h-51
q-23 0 -36 -13t-13 -30q0 -18 13 -30.5t37 -12.5h309q24 0 37.5 12.5zM354 475l191 610h97v-610h-288z" />
    <glyph glyph-name="Ccedilla" unicode="&#xc7;" 
d="M1128 373.5q18 -13.5 18 -30.5q0 -5 -1 -7q-20 -90 -79 -170.5t-159.5 -131.5t-237.5 -51h-13l-39 -308q-5 -42 -22.5 -61t-39.5 -19q-23 0 -36 14.5t-13 39.5q0 17 8 41l103 295q-141 13 -251 93t-172 216.5t-62 312.5q0 170 69.5 302t191.5 205t275 73q78 0 149 -22.5
t124.5 -61.5t80.5 -88v106q0 23 14.5 36.5t34.5 13.5t34.5 -13.5t14.5 -37.5v-293q0 -23 -13.5 -35t-32.5 -12q-18 0 -31 12.5t-17 34.5q-15 81 -65.5 143t-125.5 96.5t-164 34.5q-135 0 -235 -64t-154 -178t-54 -259q0 -163 60.5 -283.5t161.5 -184t220 -63.5q142 0 240 77
t139 213q10 28 40 28q21 0 39 -13.5z" />
    <glyph glyph-name="Egrave" unicode="&#xc8;" 
d="M504 1642q-11 10 -28 10q-22 0 -40 -18t-18 -39q0 -18 19 -31l79 -50q185 -116 261 -160q4 -4 12 -4q13 0 23 11t10 24q0 15 -10 21q-150 100 -308 236zM826 818.5q-11 13.5 -27 13.5q-15 0 -26.5 -12t-13.5 -33l-13 -133h-326v431h609l14 -244q1 -18 13.5 -28t28.5 -10
t28 11.5t12 32.5v270q0 25 -15.5 39.5t-40.5 14.5h-878q-23 0 -36.5 -13t-13.5 -31q0 -17 12.5 -29.5t35.5 -12.5h135v-1000h-170q-23 0 -36.5 -12.5t-13.5 -29.5t13.5 -30t37.5 -13h926q25 0 40.5 14t15.5 39v270q0 25 -12.5 38.5t-29.5 13.5t-30 -11t-14 -28l-16 -251
h-615v492h326l13 -148q1 -20 13 -31.5t27 -11.5q16 0 27 13t11 38v342q0 26 -11 39.5z" />
    <glyph glyph-name="Eacute" unicode="&#xc9;" 
d="M786.5 1657q-19.5 20 -42.5 20q-17 0 -31 -14l-271 -276q-7 -7 -7 -15q0 -9 7.5 -15.5t16.5 -6.5q7 0 11 4l322 234q14 10 14 28q0 21 -19.5 41zM826 818.5q-11 13.5 -27 13.5q-15 0 -26.5 -12t-13.5 -33l-13 -133h-326v431h609l14 -244q1 -18 13.5 -28t28.5 -10t28 11.5
t12 32.5v270q0 25 -15.5 39.5t-40.5 14.5h-878q-23 0 -36.5 -13t-13.5 -31q0 -17 12.5 -29.5t35.5 -12.5h135v-1000h-170q-23 0 -36.5 -12.5t-13.5 -29.5t13.5 -30t37.5 -13h926q25 0 40.5 14t15.5 39v270q0 25 -12.5 38.5t-29.5 13.5t-30 -11t-14 -28l-16 -251h-615v492
h326l13 -148q1 -20 13 -31.5t27 -11.5q16 0 27 13t11 38v342q0 26 -11 39.5z" />
    <glyph glyph-name="Ecircumflex" unicode="&#xca;" 
d="M405 1396q-7 -7 -7 -17q0 -12 11.5 -20.5t25.5 -8.5q17 0 23 9l162 209l163 -209q6 -9 23 -9q14 0 25.5 8.5t11.5 20.5q0 10 -7 17l-184 283q-4 6 -13 9t-19 3q-24 0 -31 -12zM826 818.5q-11 13.5 -27 13.5q-15 0 -26.5 -12t-13.5 -33l-13 -133h-326v431h609l14 -244
q1 -18 13.5 -28t28.5 -10t28 11.5t12 32.5v270q0 25 -15.5 39.5t-40.5 14.5h-878q-23 0 -36.5 -13t-13.5 -31q0 -17 12.5 -29.5t35.5 -12.5h135v-1000h-170q-23 0 -36.5 -12.5t-13.5 -29.5t13.5 -30t37.5 -13h926q25 0 40.5 14t15.5 39v270q0 25 -12.5 38.5t-29.5 13.5
t-30 -11t-14 -28l-16 -251h-615v492h326l13 -148q1 -20 13 -31.5t27 -11.5q16 0 27 13t11 38v342q0 26 -11 39.5z" />
    <glyph glyph-name="Edieresis" unicode="&#xcb;" 
d="M395 1333q24 -24 59 -24t58.5 24t23.5 58q0 35 -24 59t-58 24t-58.5 -24t-24.5 -59q0 -34 24 -58zM730 1333q24 -24 59 -24t58.5 24t23.5 58q0 35 -24 59t-58 24t-58.5 -24t-24.5 -59q0 -34 24 -58zM826 818.5q-11 13.5 -27 13.5q-15 0 -26.5 -12t-13.5 -33l-13 -133
h-326v431h609l14 -244q1 -18 13.5 -28t28.5 -10t28 11.5t12 32.5v270q0 25 -15.5 39.5t-40.5 14.5h-878q-23 0 -36.5 -13t-13.5 -31q0 -17 12.5 -29.5t35.5 -12.5h135v-1000h-170q-23 0 -36.5 -12.5t-13.5 -29.5t13.5 -30t37.5 -13h926q25 0 40.5 14t15.5 39v270
q0 25 -12.5 38.5t-29.5 13.5t-30 -11t-14 -28l-16 -251h-615v492h326l13 -148q1 -20 13 -31.5t27 -11.5q16 0 27 13t11 38v342q0 26 -11 39.5z" />
    <glyph glyph-name="Igrave" unicode="&#xcc;" 
d="M536 1642q-11 10 -28 10q-22 0 -40 -18t-18 -39q0 -18 19 -31l79 -50q185 -116 261 -160q4 -4 12 -4q13 0 23 11t10 24q0 15 -10 21q-150 100 -308 236zM1032 12.5q13 12.5 13 30.5q0 17 -13 30t-36 13h-286v999h286q23 0 36 12.5t13 29.5q0 18 -13.5 31t-36.5 13h-685
q-24 0 -37.5 -13t-13.5 -31q0 -17 13.5 -29.5t36.5 -12.5h305v-999h-305q-23 0 -36.5 -13t-13.5 -30q0 -18 13.5 -30.5t37.5 -12.5h685q24 0 37 12.5z" />
    <glyph glyph-name="Iacute" unicode="&#xcd;" 
d="M817.5 1657q-19.5 20 -42.5 20q-17 0 -31 -14l-271 -276q-7 -7 -7 -15q0 -9 7.5 -15.5t16.5 -6.5q7 0 11 4l322 234q14 10 14 28q0 21 -19.5 41zM1032 12.5q13 12.5 13 30.5q0 17 -13 30t-36 13h-286v999h286q23 0 36 12.5t13 29.5q0 18 -13.5 31t-36.5 13h-685
q-24 0 -37.5 -13t-13.5 -31q0 -17 13.5 -29.5t36.5 -12.5h305v-999h-305q-23 0 -36.5 -13t-13.5 -30q0 -18 13.5 -30.5t37.5 -12.5h685q24 0 37 12.5z" />
    <glyph glyph-name="Icircumflex" unicode="&#xce;" 
d="M436 1396q-7 -7 -7 -17q0 -12 11.5 -20.5t25.5 -8.5q17 0 23 9l162 209l163 -209q6 -9 23 -9q14 0 25.5 8.5t11.5 20.5q0 10 -7 17l-184 283q-4 6 -13 9t-19 3q-24 0 -31 -12zM1032 12.5q13 12.5 13 30.5q0 17 -13 30t-36 13h-286v999h286q23 0 36 12.5t13 29.5
q0 18 -13.5 31t-36.5 13h-685q-24 0 -37.5 -13t-13.5 -31q0 -17 13.5 -29.5t36.5 -12.5h305v-999h-305q-23 0 -36.5 -13t-13.5 -30q0 -18 13.5 -30.5t37.5 -12.5h685q24 0 37 12.5z" />
    <glyph glyph-name="Idieresis" unicode="&#xcf;" 
d="M426 1333q24 -24 59 -24t58.5 24t23.5 58q0 35 -24 59t-58 24t-58.5 -24t-24.5 -59q0 -34 24 -58zM761 1333q24 -24 59 -24t58.5 24t23.5 58q0 35 -24 59t-58 24t-58.5 -24t-24.5 -59q0 -34 24 -58zM1032 12.5q13 12.5 13 30.5q0 17 -13 30t-36 13h-286v999h286
q23 0 36 12.5t13 29.5q0 18 -13.5 31t-36.5 13h-685q-24 0 -37.5 -13t-13.5 -31q0 -17 13.5 -29.5t36.5 -12.5h305v-999h-305q-23 0 -36.5 -13t-13.5 -30q0 -18 13.5 -30.5t37.5 -12.5h685q24 0 37 12.5z" />
    <glyph glyph-name="Eth" unicode="&#xd0;" 
d="M314 86h-163q-23 0 -36.5 -13t-13.5 -30q0 -18 13.5 -30.5t37.5 -12.5h361q280 0 425.5 141.5t145.5 449.5q0 292 -151 436t-418 144h-358q-23 0 -36.5 -13t-13.5 -31q0 -17 12.5 -29.5t35.5 -12.5h159v-437h-146q-42 0 -42 -37q0 -39 46 -39h142v-486zM420 86v486h185
q41 0 41 39q0 17 -8 27t-31 10h-187v437h114q218 0 331 -127.5t113 -366.5q0 -171 -46 -282t-147 -167t-265 -56h-100z" />
    <glyph glyph-name="Ntilde" unicode="&#xd1;" 
d="M393.5 1376.5q13.5 -8.5 27.5 -8.5q16 0 22 12q14 34 29 51t34 17q6 0 9 -1q26 -6 90 -40q40 -20 68 -33t56 -20q18 -4 27 -4q78 0 126 125q3 14 -14 26t-34 12q-13 0 -17 -8t-15.5 -30t-23.5 -34t-26 -12t-38.5 11t-64.5 32l-37 18.5t-52 23.5t-40 12q-12 2 -16 2
q-29 0 -58 -20.5t-47.5 -51.5t-18.5 -60q0 -11 13.5 -19.5zM285 86h-126q-23 0 -36 -13t-13 -30q0 -18 13 -30.5t37 -12.5h358q24 0 37 12.5t13 30.5q0 17 -13 30t-36 13h-138v998l553 -1062q9 -18 24.5 -28t31.5 -10q21 0 35 16t14 47v1038h96q23 0 35.5 12.5t12.5 29.5
q0 18 -13.5 31t-36.5 13h-337q-24 0 -37.5 -13t-13.5 -31q0 -17 13 -29.5t36 -12.5h149v-891l-486 953q-6 13 -15 18.5t-25 5.5h-287q-23 0 -36.5 -13t-13.5 -31q0 -17 13 -29.5t36 -12.5h156v-999z" />
    <glyph glyph-name="Ograve" unicode="&#xd2;" 
d="M504 1642q-11 10 -28 10q-22 0 -40 -18t-18 -39q0 -18 19 -31l79 -50q185 -116 261 -160q4 -4 12 -4q13 0 23 11t10 24q0 15 -10 21q-150 100 -308 236zM1073.5 876.5q-58.5 138.5 -174.5 224.5t-279 86t-279 -86t-174.5 -224.5t-58.5 -294.5t58.5 -293t174.5 -221.5
t279 -84.5t279 84.5t174.5 221.5t58.5 293t-58.5 294.5zM989 331.5q-47 -117.5 -141 -190t-228 -72.5t-228 72.5t-141 190t-47 250.5q0 135 48 253.5t142 192t226 73.5t226 -73.5t142 -192t48 -253.5q0 -133 -47 -250.5z" />
    <glyph glyph-name="Oacute" unicode="&#xd3;" 
d="M785.5 1657q-19.5 20 -42.5 20q-17 0 -31 -14l-271 -276q-7 -7 -7 -15q0 -9 7.5 -15.5t16.5 -6.5q7 0 11 4l322 234q14 10 14 28q0 21 -19.5 41zM1073.5 876.5q-58.5 138.5 -174.5 224.5t-279 86t-279 -86t-174.5 -224.5t-58.5 -294.5t58.5 -293t174.5 -221.5t279 -84.5
t279 84.5t174.5 221.5t58.5 293t-58.5 294.5zM989 331.5q-47 -117.5 -141 -190t-228 -72.5t-228 72.5t-141 190t-47 250.5q0 135 48 253.5t142 192t226 73.5t226 -73.5t142 -192t48 -253.5q0 -133 -47 -250.5z" />
    <glyph glyph-name="Ocircumflex" unicode="&#xd4;" 
d="M404 1396q-7 -7 -7 -17q0 -12 11.5 -20.5t25.5 -8.5q17 0 23 9l162 209l163 -209q6 -9 23 -9q14 0 25.5 8.5t11.5 20.5q0 10 -7 17l-184 283q-4 6 -13 9t-19 3q-24 0 -31 -12zM1073.5 876.5q-58.5 138.5 -174.5 224.5t-279 86t-279 -86t-174.5 -224.5t-58.5 -294.5
t58.5 -293t174.5 -221.5t279 -84.5t279 84.5t174.5 221.5t58.5 293t-58.5 294.5zM989 331.5q-47 -117.5 -141 -190t-228 -72.5t-228 72.5t-141 190t-47 250.5q0 135 48 253.5t142 192t226 73.5t226 -73.5t142 -192t48 -253.5q0 -133 -47 -250.5z" />
    <glyph glyph-name="Otilde" unicode="&#xd5;" 
d="M382.5 1376.5q13.5 -8.5 27.5 -8.5q16 0 22 12q14 34 29 51t34 17q6 0 9 -1q26 -6 90 -40q40 -20 68 -33t56 -20q18 -4 27 -4q78 0 126 125q3 14 -14 26t-34 12q-13 0 -17 -8t-15.5 -30t-23.5 -34t-26 -12t-38.5 11t-64.5 32l-37 18.5t-52 23.5t-40 12q-12 2 -16 2
q-29 0 -58 -20.5t-47.5 -51.5t-18.5 -60q0 -11 13.5 -19.5zM1073.5 876.5q-58.5 138.5 -174.5 224.5t-279 86t-279 -86t-174.5 -224.5t-58.5 -294.5t58.5 -293t174.5 -221.5t279 -84.5t279 84.5t174.5 221.5t58.5 293t-58.5 294.5zM989 331.5q-47 -117.5 -141 -190
t-228 -72.5t-228 72.5t-141 190t-47 250.5q0 135 48 253.5t142 192t226 73.5t226 -73.5t142 -192t48 -253.5q0 -133 -47 -250.5z" />
    <glyph glyph-name="Odieresis" unicode="&#xd6;" 
d="M393 1374q24 -24 59 -24t58.5 24t23.5 58q0 35 -24 59t-58 24t-58.5 -24t-24.5 -59q0 -34 24 -58zM728 1374q24 -24 59 -24t58.5 24t23.5 58q0 35 -24 59t-58 24t-58.5 -24t-24.5 -59q0 -34 24 -58zM1073.5 876.5q-58.5 138.5 -174.5 224.5t-279 86t-279 -86
t-174.5 -224.5t-58.5 -294.5t58.5 -293t174.5 -221.5t279 -84.5t279 84.5t174.5 221.5t58.5 293t-58.5 294.5zM989 331.5q-47 -117.5 -141 -190t-228 -72.5t-228 72.5t-141 190t-47 250.5q0 135 48 253.5t142 192t226 73.5t226 -73.5t142 -192t48 -253.5q0 -133 -47 -250.5z
" />
    <glyph glyph-name="multiply" unicode="&#xd7;" 
d="M699 558l-183 184q-15 15 -36 15q-20 0 -35 -15t-15 -35q0 -21 15 -36l183 -183l-183 -185q-15 -15 -15 -35t15 -35t35 -15q21 0 36 15l183 184l184 -184q15 -15 36 -15q20 0 35 15t15 35t-15 35l-184 185l184 183q15 15 15 36q0 20 -15 35t-35 15q-21 0 -36 -15z" />
    <glyph glyph-name="Oslash" unicode="&#xd8;" 
d="M1080.5 859.5q51.5 -131.5 51.5 -277.5q0 -156 -58.5 -293t-174.5 -221.5t-279 -84.5q-121 0 -221 50l-104 -205q-9 -20 -30 -20q-15 0 -27 10.5t-12 23.5q0 6 3 12l110 215q-112 80 -171.5 218t-59.5 295q0 156 58.5 294.5t174.5 224.5t279 86q143 0 256 -70l96 188
q9 16 27 16q14 0 26 -9t12 -23q0 -8 -4 -15l-101 -199q97 -84 148.5 -215.5zM249.5 336.5q45.5 -115.5 131.5 -185.5l453 885q-92 65 -214 65q-132 0 -226 -73.5t-142 -192t-48 -253.5q0 -130 45.5 -245.5zM848 141.5q94 72.5 141 190t47 250.5q0 119 -38 227.5t-110 181.5
l-448 -879q78 -43 180 -43q134 0 228 72.5z" />
    <glyph glyph-name="Ugrave" unicode="&#xd9;" 
d="M533 1642q-11 10 -28 10q-22 0 -40 -18t-18 -39q0 -18 19 -31l79 -50q185 -116 261 -160q4 -4 12 -4q13 0 23 11t10 24q0 15 -10 21q-150 100 -308 236zM1056 1085h118q33 0 51 12.5t18 29.5q0 18 -18.5 31t-51.5 13h-333q-24 0 -37.5 -13t-13.5 -31q0 -17 13.5 -29.5
t36.5 -12.5h121v-674q0 -100 -38 -177.5t-107 -121t-161 -43.5q-149 0 -229 90t-80 254v672h162q23 0 36 12.5t13 29.5q0 18 -13.5 31t-36.5 13h-401q-23 0 -36.5 -13t-13.5 -31q0 -17 13 -29.5t36 -12.5h145v-672q0 -133 51 -230t142.5 -148.5t211.5 -51.5q118 0 209.5 54
t142 151t50.5 223v674z" />
    <glyph glyph-name="Uacute" unicode="&#xda;" 
d="M814.5 1657q-19.5 20 -42.5 20q-17 0 -31 -14l-271 -276q-7 -7 -7 -15q0 -9 7.5 -15.5t16.5 -6.5q7 0 11 4l322 234q14 10 14 28q0 21 -19.5 41zM1056 1085h118q33 0 51 12.5t18 29.5q0 18 -18.5 31t-51.5 13h-333q-24 0 -37.5 -13t-13.5 -31q0 -17 13.5 -29.5
t36.5 -12.5h121v-674q0 -100 -38 -177.5t-107 -121t-161 -43.5q-149 0 -229 90t-80 254v672h162q23 0 36 12.5t13 29.5q0 18 -13.5 31t-36.5 13h-401q-23 0 -36.5 -13t-13.5 -31q0 -17 13 -29.5t36 -12.5h145v-672q0 -133 51 -230t142.5 -148.5t211.5 -51.5q118 0 209.5 54
t142 151t50.5 223v674z" />
    <glyph glyph-name="Ucircumflex" unicode="&#xdb;" 
d="M434 1396q-7 -7 -7 -17q0 -12 11.5 -20.5t25.5 -8.5q17 0 23 9l162 209l163 -209q6 -9 23 -9q14 0 25.5 8.5t11.5 20.5q0 10 -7 17l-184 283q-4 6 -13 9t-19 3q-24 0 -31 -12zM1056 1085h118q33 0 51 12.5t18 29.5q0 18 -18.5 31t-51.5 13h-333q-24 0 -37.5 -13
t-13.5 -31q0 -17 13.5 -29.5t36.5 -12.5h121v-674q0 -100 -38 -177.5t-107 -121t-161 -43.5q-149 0 -229 90t-80 254v672h162q23 0 36 12.5t13 29.5q0 18 -13.5 31t-36.5 13h-401q-23 0 -36.5 -13t-13.5 -31q0 -17 13 -29.5t36 -12.5h145v-672q0 -133 51 -230t142.5 -148.5
t211.5 -51.5q118 0 209.5 54t142 151t50.5 223v674z" />
    <glyph glyph-name="Udieresis" unicode="&#xdc;" 
d="M423 1333q24 -24 59 -24t58.5 24t23.5 58q0 35 -24 59t-58 24t-58.5 -24t-24.5 -59q0 -34 24 -58zM758 1333q24 -24 59 -24t58.5 24t23.5 58q0 35 -24 59t-58 24t-58.5 -24t-24.5 -59q0 -34 24 -58zM1056 1085h118q33 0 51 12.5t18 29.5q0 18 -18.5 31t-51.5 13h-333
q-24 0 -37.5 -13t-13.5 -31q0 -17 13.5 -29.5t36.5 -12.5h121v-674q0 -100 -38 -177.5t-107 -121t-161 -43.5q-149 0 -229 90t-80 254v672h162q23 0 36 12.5t13 29.5q0 18 -13.5 31t-36.5 13h-401q-23 0 -36.5 -13t-13.5 -31q0 -17 13 -29.5t36 -12.5h145v-672
q0 -133 51 -230t142.5 -148.5t211.5 -51.5q118 0 209.5 54t142 151t50.5 223v674z" />
    <glyph glyph-name="Yacute" unicode="&#xdd;" 
d="M785.5 1657q-19.5 20 -42.5 20q-17 0 -31 -14l-271 -276q-7 -7 -7 -15q0 -9 7.5 -15.5t16.5 -6.5q7 0 11 4l322 234q14 10 14 28q0 21 -19.5 41zM767 1159.5q-14 -11.5 -14 -26.5t13.5 -26.5t36.5 -11.5h111l-268 -462l-276 462h136q23 0 36.5 11.5t13.5 26.5t-13.5 26.5
t-37.5 11.5h-330q-23 0 -37 -11.5t-14 -26.5t13.5 -26.5t36.5 -11.5h84l335 -542v-467h-261q-23 0 -36.5 -12.5t-13.5 -29.5q0 -18 14 -31t38 -13h585q23 0 36.5 13t13.5 31q0 17 -12.5 29.5t-35.5 12.5h-232v462l323 547h55q23 0 36 11t13 26q0 16 -13.5 27.5t-37.5 11.5
h-261q-23 0 -37 -11.5z" />
    <glyph glyph-name="Thorn" unicode="&#xde;" 
d="M429 1085h163q39 0 39 45q0 19 -6.5 30t-24.5 11h-477q-41 0 -41 -44q0 -42 39 -42h212v-1003h-225q-40 0 -40 -41t41 -41h546q40 0 40 41t-39 41h-227v236q199 0 327.5 15.5t219.5 81.5t91 204q0 144 -87.5 211t-214 82.5t-336.5 15.5v157zM429 851q218 0 333 -19.5
t162 -67.5t47 -138q0 -97 -51.5 -146.5t-165.5 -68.5t-325 -19v459z" />
    <glyph glyph-name="germandbls" unicode="&#xdf;" 
d="M368.5 1077q-94.5 -111 -94.5 -377v-618h-131q-27 0 -38 -9.5t-11 -34.5q0 -21 12.5 -29.5t38.5 -8.5h379q26 0 38.5 8.5t12.5 29.5q0 25 -11 34.5t-38 9.5h-156v624q0 216 66 308t183 92q97 0 156.5 -55.5t59.5 -152.5q0 -72 -39.5 -122t-99 -74.5t-117.5 -24.5
q-23 0 -35 -11.5t-12 -29.5t12 -31.5t35 -13.5q99 0 183.5 -27t138 -87.5t53.5 -156.5q0 -115 -63.5 -168.5t-166.5 -69.5q-37 -6 -49 -12t-12 -26q0 -21 12.5 -33t34.5 -12q9 0 14 1q328 50 328 318q0 145 -93 221t-234 104q49 14 95.5 49t77 87t30.5 115q0 91 -43 157.5
t-114.5 101.5t-156.5 35q-151 0 -245.5 -111z" />
    <glyph glyph-name="agrave" unicode="&#xe0;" 
d="M582 1268q-11 10 -28 10q-22 0 -40 -18t-18 -39q0 -18 19 -31l79 -50q185 -116 261 -160q4 -4 12 -4q13 0 23 11t10 24q0 15 -10 21q-150 100 -308 236zM814 470l-73 -5q-163 -11 -259.5 -28t-162.5 -70t-66 -157q0 -103 63 -164.5t175 -61.5q104 0 192.5 37t137.5 92
q12 -71 47 -95.5t86 -24.5q45 0 86.5 19.5t73.5 53.5q10 10 10 25q0 16 -11 29t-26 13q-13 0 -24 -12q-17 -18 -46 -33.5t-55 -15.5q-24 0 -38 12.5t-14 47.5v312q0 122 -26 202.5t-91.5 123.5t-180.5 43q-102 0 -181 -27t-123 -75t-44 -108q0 -32 15.5 -52t44.5 -20
q34 0 48 39t18 116q53 24 105.5 34.5t115.5 10.5q112 0 157.5 -62t45.5 -179v-20zM675.5 98.5q-84.5 -33.5 -173.5 -33.5q-69 0 -110.5 34.5t-41.5 110.5q0 70 48 106t129.5 50.5t245.5 30.5l41 4v-212q-54 -57 -138.5 -90.5z" />
    <glyph glyph-name="aacute" unicode="&#xe1;" 
d="M864.5 1283q-19.5 20 -42.5 20q-17 0 -31 -14l-271 -276q-7 -7 -7 -15q0 -9 7.5 -15.5t16.5 -6.5q7 0 11 4l322 234q14 10 14 28q0 21 -19.5 41zM814 470l-73 -5q-163 -11 -259.5 -28t-162.5 -70t-66 -157q0 -103 63 -164.5t175 -61.5q104 0 192.5 37t137.5 92
q12 -71 47 -95.5t86 -24.5q45 0 86.5 19.5t73.5 53.5q10 10 10 25q0 16 -11 29t-26 13q-13 0 -24 -12q-17 -18 -46 -33.5t-55 -15.5q-24 0 -38 12.5t-14 47.5v312q0 122 -26 202.5t-91.5 123.5t-180.5 43q-102 0 -181 -27t-123 -75t-44 -108q0 -32 15.5 -52t44.5 -20
q34 0 48 39t18 116q53 24 105.5 34.5t115.5 10.5q112 0 157.5 -62t45.5 -179v-20zM675.5 98.5q-84.5 -33.5 -173.5 -33.5q-69 0 -110.5 34.5t-41.5 110.5q0 70 48 106t129.5 50.5t245.5 30.5l41 4v-212q-54 -57 -138.5 -90.5z" />
    <glyph glyph-name="acircumflex" unicode="&#xe2;" 
d="M483 1022q-7 -7 -7 -17q0 -12 11.5 -20.5t25.5 -8.5q17 0 23 9l162 209l163 -209q6 -9 23 -9q14 0 25.5 8.5t11.5 20.5q0 10 -7 17l-184 283q-4 6 -13 9t-19 3q-24 0 -31 -12zM814 470l-73 -5q-163 -11 -259.5 -28t-162.5 -70t-66 -157q0 -103 63 -164.5t175 -61.5
q104 0 192.5 37t137.5 92q12 -71 47 -95.5t86 -24.5q45 0 86.5 19.5t73.5 53.5q10 10 10 25q0 16 -11 29t-26 13q-13 0 -24 -12q-17 -18 -46 -33.5t-55 -15.5q-24 0 -38 12.5t-14 47.5v312q0 122 -26 202.5t-91.5 123.5t-180.5 43q-102 0 -181 -27t-123 -75t-44 -108
q0 -32 15.5 -52t44.5 -20q34 0 48 39t18 116q53 24 105.5 34.5t115.5 10.5q112 0 157.5 -62t45.5 -179v-20zM675.5 98.5q-84.5 -33.5 -173.5 -33.5q-69 0 -110.5 34.5t-41.5 110.5q0 70 48 106t129.5 50.5t245.5 30.5l41 4v-212q-54 -57 -138.5 -90.5z" />
    <glyph glyph-name="atilde" unicode="&#xe3;" 
d="M460.5 1002.5q13.5 -8.5 27.5 -8.5q16 0 22 12q14 34 29 51t34 17q6 0 9 -1q26 -6 90 -40q40 -20 68 -33t56 -20q18 -4 27 -4q78 0 126 125q3 14 -14 26t-34 12q-13 0 -17 -8t-15.5 -30t-23.5 -34t-26 -12t-38.5 11t-64.5 32l-37 18.5t-52 23.5t-40 12q-12 2 -16 2
q-29 0 -58 -20.5t-47.5 -51.5t-18.5 -60q0 -11 13.5 -19.5zM814 470l-73 -5q-163 -11 -259.5 -28t-162.5 -70t-66 -157q0 -103 63 -164.5t175 -61.5q104 0 192.5 37t137.5 92q12 -71 47 -95.5t86 -24.5q45 0 86.5 19.5t73.5 53.5q10 10 10 25q0 16 -11 29t-26 13
q-13 0 -24 -12q-17 -18 -46 -33.5t-55 -15.5q-24 0 -38 12.5t-14 47.5v312q0 122 -26 202.5t-91.5 123.5t-180.5 43q-102 0 -181 -27t-123 -75t-44 -108q0 -32 15.5 -52t44.5 -20q34 0 48 39t18 116q53 24 105.5 34.5t115.5 10.5q112 0 157.5 -62t45.5 -179v-20zM675.5 98.5
q-84.5 -33.5 -173.5 -33.5q-69 0 -110.5 34.5t-41.5 110.5q0 70 48 106t129.5 50.5t245.5 30.5l41 4v-212q-54 -57 -138.5 -90.5z" />
    <glyph glyph-name="adieresis" unicode="&#xe4;" 
d="M463 959q24 -24 59 -24t58.5 24t23.5 58q0 35 -24 59t-58 24t-58.5 -24t-24.5 -59q0 -34 24 -58zM798 959q24 -24 59 -24t58.5 24t23.5 58q0 35 -24 59t-58 24t-58.5 -24t-24.5 -59q0 -34 24 -58zM814 470l-73 -5q-163 -11 -259.5 -28t-162.5 -70t-66 -157
q0 -103 63 -164.5t175 -61.5q104 0 192.5 37t137.5 92q12 -71 47 -95.5t86 -24.5q45 0 86.5 19.5t73.5 53.5q10 10 10 25q0 16 -11 29t-26 13q-13 0 -24 -12q-17 -18 -46 -33.5t-55 -15.5q-24 0 -38 12.5t-14 47.5v312q0 122 -26 202.5t-91.5 123.5t-180.5 43
q-102 0 -181 -27t-123 -75t-44 -108q0 -32 15.5 -52t44.5 -20q34 0 48 39t18 116q53 24 105.5 34.5t115.5 10.5q112 0 157.5 -62t45.5 -179v-20zM675.5 98.5q-84.5 -33.5 -173.5 -33.5q-69 0 -110.5 34.5t-41.5 110.5q0 70 48 106t129.5 50.5t245.5 30.5l41 4v-212
q-54 -57 -138.5 -90.5z" />
    <glyph glyph-name="aring" unicode="&#xe5;" 
d="M547 1062.5q20 -38.5 58.5 -62.5t92.5 -24t93 24.5t59 63.5t20 83t-19.5 82.5t-57.5 62.5t-92 24q-55 0 -94 -24.5t-59.5 -64t-20.5 -83.5q0 -43 20 -81.5zM628 1220q25 30 72 30q46 0 71.5 -30t25.5 -75t-24 -74.5t-70 -29.5t-73 30.5t-27 73.5q0 45 25 75zM814 470
l-73 -5q-163 -11 -259.5 -28t-162.5 -70t-66 -157q0 -103 63 -164.5t175 -61.5q104 0 192.5 37t137.5 92q12 -71 47 -95.5t86 -24.5q45 0 86.5 19.5t73.5 53.5q10 10 10 25q0 16 -11 29t-26 13q-13 0 -24 -12q-17 -18 -46 -33.5t-55 -15.5q-24 0 -38 12.5t-14 47.5v312
q0 122 -26 202.5t-91.5 123.5t-180.5 43q-102 0 -181 -27t-123 -75t-44 -108q0 -32 15.5 -52t44.5 -20q34 0 48 39t18 116q53 24 105.5 34.5t115.5 10.5q112 0 157.5 -62t45.5 -179v-20zM675.5 98.5q-84.5 -33.5 -173.5 -33.5q-69 0 -110.5 34.5t-41.5 110.5q0 70 48 106
t129.5 50.5t245.5 30.5l41 4v-212q-54 -57 -138.5 -90.5z" />
    <glyph glyph-name="ae" unicode="&#xe6;" 
d="M995.5 5.5q61.5 22.5 110.5 79.5q16 19 16 42q0 36 -36 36q-18 0 -38 -17q-38 -39 -61 -56t-45 -23t-58 -6q-108 0 -166 84.5t-63 248.5l385 14q33 0 52.5 21.5t19.5 58.5q0 106 -32.5 179t-87.5 109.5t-123 36.5q-83 0 -147 -45.5t-98 -125.5q-13 78 -72.5 124.5
t-145.5 46.5q-139 0 -208 -57t-69 -153q0 -32 14.5 -52t41.5 -20q31 0 44.5 44.5t17.5 125.5q26 11 66.5 20.5t91.5 9.5q68 0 104.5 -29.5t49.5 -80t13 -125.5v-37q-166 -9 -254.5 -25t-143.5 -69t-55 -162q0 -65 30.5 -115t80.5 -77.5t105 -27.5q95 0 174.5 38.5
t118.5 107.5q36 -66 100.5 -106t147.5 -40q58 0 119.5 22.5zM993 655q34 -76 40 -181l-375 -13q5 72 21 129t61.5 99t129.5 42q89 0 123 -76zM241.5 316q31.5 37 104.5 51.5t227 23.5q1 -109 30 -198q-32 -64 -102.5 -98.5t-148.5 -34.5q-61 0 -101.5 39.5t-40.5 103.5
q0 76 31.5 113z" />
    <glyph glyph-name="ccedilla" unicode="&#xe7;" 
d="M968 178q10 -10 10 -31q0 -22 -18 -42q-52 -57 -147.5 -89.5t-180.5 -32.5q-23 0 -34 1l-39 -309q-5 -42 -22.5 -61t-39.5 -19q-23 0 -36 14.5t-13 39.5q0 17 8 41l104 297q-114 13 -199 67t-131.5 144t-46.5 209q0 124 60.5 216t163.5 141t228 49q158 0 251 -60t93 -189
q0 -36 -15.5 -58t-44.5 -22t-40 36.5t-21 124.5l-5 41q-50 25 -99.5 35t-103.5 10q-116 0 -199.5 -39t-127.5 -111.5t-44 -173.5q0 -169 93.5 -255.5t251.5 -86.5q92 0 154 25t124 82q17 16 41 16q15 0 25 -10z" />
    <glyph glyph-name="egrave" unicode="&#xe8;" 
d="M506 1227q-11 10 -28 10q-22 0 -40 -18t-18 -39q0 -18 19 -31l79 -50q185 -116 261 -160q4 -4 12 -4q13 0 23 11t10 24q0 15 -10 21q-150 100 -308 236zM269 180.5q57 -95.5 159.5 -146.5t236.5 -51q85 0 182.5 33t149.5 89q18 20 18 42q0 18 -11 31t-29 13
q-20 0 -41 -17q-57 -54 -129.5 -81.5t-147.5 -27.5q-154 0 -249 82t-100 240l629 5q35 0 56 24.5t21 62.5q0 107 -46.5 182t-128 113.5t-185.5 38.5q-122 0 -222.5 -49t-160 -141t-59.5 -216q0 -131 57 -226.5zM867 652q55 -79 62 -187l-618 -4q18 128 108.5 199t236.5 71
q156 0 211 -79z" />
    <glyph glyph-name="eacute" unicode="&#xe9;" 
d="M787.5 1242q-19.5 20 -42.5 20q-17 0 -31 -14l-271 -276q-7 -7 -7 -15q0 -9 7.5 -15.5t16.5 -6.5q7 0 11 4l322 234q14 10 14 28q0 21 -19.5 41zM269 180.5q57 -95.5 159.5 -146.5t236.5 -51q85 0 182.5 33t149.5 89q18 20 18 42q0 18 -11 31t-29 13q-20 0 -41 -17
q-57 -54 -129.5 -81.5t-147.5 -27.5q-154 0 -249 82t-100 240l629 5q35 0 56 24.5t21 62.5q0 107 -46.5 182t-128 113.5t-185.5 38.5q-122 0 -222.5 -49t-160 -141t-59.5 -216q0 -131 57 -226.5zM867 652q55 -79 62 -187l-618 -4q18 128 108.5 199t236.5 71q156 0 211 -79z
" />
    <glyph glyph-name="ecircumflex" unicode="&#xea;" 
d="M406 981q-7 -7 -7 -17q0 -12 11.5 -20.5t25.5 -8.5q17 0 23 9l162 209l163 -209q6 -9 23 -9q14 0 25.5 8.5t11.5 20.5q0 10 -7 17l-184 283q-4 6 -13 9t-19 3q-24 0 -31 -12zM269 180.5q57 -95.5 159.5 -146.5t236.5 -51q85 0 182.5 33t149.5 89q18 20 18 42q0 18 -11 31
t-29 13q-20 0 -41 -17q-57 -54 -129.5 -81.5t-147.5 -27.5q-154 0 -249 82t-100 240l629 5q35 0 56 24.5t21 62.5q0 107 -46.5 182t-128 113.5t-185.5 38.5q-122 0 -222.5 -49t-160 -141t-59.5 -216q0 -131 57 -226.5zM867 652q55 -79 62 -187l-618 -4q18 128 108.5 199
t236.5 71q156 0 211 -79z" />
    <glyph glyph-name="edieresis" unicode="&#xeb;" 
d="M387 959q24 -24 59 -24t58.5 24t23.5 58q0 35 -24 59t-58 24t-58.5 -24t-24.5 -59q0 -34 24 -58zM722 959q24 -24 59 -24t58.5 24t23.5 58q0 35 -24 59t-58 24t-58.5 -24t-24.5 -59q0 -34 24 -58zM269 180.5q57 -95.5 159.5 -146.5t236.5 -51q85 0 182.5 33t149.5 89
q18 20 18 42q0 18 -11 31t-29 13q-20 0 -41 -17q-57 -54 -129.5 -81.5t-147.5 -27.5q-154 0 -249 82t-100 240l629 5q35 0 56 24.5t21 62.5q0 107 -46.5 182t-128 113.5t-185.5 38.5q-122 0 -222.5 -49t-160 -141t-59.5 -216q0 -131 57 -226.5zM867 652q55 -79 62 -187
l-618 -4q18 128 108.5 199t236.5 71q156 0 211 -79z" />
    <glyph glyph-name="igrave" unicode="&#xec;" 
d="M578 1227q-11 10 -28 10q-22 0 -40 -18t-18 -39q0 -18 19 -31l79 -50q185 -116 261 -160q4 -4 12 -4q13 0 23 11t10 24q0 15 -10 21q-150 100 -308 236zM1125 12q11 12 11 29q0 16 -10.5 28.5t-29.5 12.5h-333v697q0 15 -10 23.5t-26 8.5q-8 0 -11 -1l-398 -55
q-16 -2 -24 -13.5t-8 -26.5q0 -17 11 -29.5t30 -12.5l7 1l333 45v-637h-372q-20 0 -31 -11.5t-11 -27.5q0 -17 12 -30t34 -13h796q19 0 30 12z" />
    <glyph glyph-name="iacute" unicode="&#xed;" 
d="M860.5 1242q-19.5 20 -42.5 20q-17 0 -31 -14l-271 -276q-7 -7 -7 -15q0 -9 7.5 -15.5t16.5 -6.5q7 0 11 4l322 234q14 10 14 28q0 21 -19.5 41zM1125 12q11 12 11 29q0 16 -10.5 28.5t-29.5 12.5h-333v697q0 15 -10 23.5t-26 8.5q-8 0 -11 -1l-398 -55q-16 -2 -24 -13.5
t-8 -26.5q0 -17 11 -29.5t30 -12.5l7 1l333 45v-637h-372q-20 0 -31 -11.5t-11 -27.5q0 -17 12 -30t34 -13h796q19 0 30 12z" />
    <glyph glyph-name="icircumflex" unicode="&#xee;" 
d="M479 981q-7 -7 -7 -17q0 -12 11.5 -20.5t25.5 -8.5q17 0 23 9l162 209l163 -209q6 -9 23 -9q14 0 25.5 8.5t11.5 20.5q0 10 -7 17l-184 283q-4 6 -13 9t-19 3q-24 0 -31 -12zM1125 12q11 12 11 29q0 16 -10.5 28.5t-29.5 12.5h-333v697q0 15 -10 23.5t-26 8.5
q-8 0 -11 -1l-398 -55q-16 -2 -24 -13.5t-8 -26.5q0 -17 11 -29.5t30 -12.5l7 1l333 45v-637h-372q-20 0 -31 -11.5t-11 -27.5q0 -17 12 -30t34 -13h796q19 0 30 12z" />
    <glyph glyph-name="idieresis" unicode="&#xef;" 
d="M469 959q24 -24 59 -24t58.5 24t23.5 58q0 35 -24 59t-58 24t-58.5 -24t-24.5 -59q0 -34 24 -58zM804 959q24 -24 59 -24t58.5 24t23.5 58q0 35 -24 59t-58 24t-58.5 -24t-24.5 -59q0 -34 24 -58zM1125 12q11 12 11 29q0 16 -10.5 28.5t-29.5 12.5h-333v697
q0 15 -10 23.5t-26 8.5q-8 0 -11 -1l-398 -55q-16 -2 -24 -13.5t-8 -26.5q0 -17 11 -29.5t30 -12.5l7 1l333 45v-637h-372q-20 0 -31 -11.5t-11 -27.5q0 -17 12 -30t34 -13h796q19 0 30 12z" />
    <glyph glyph-name="eth" unicode="&#xf0;" 
d="M839 1226q0 18 -13.5 33.5t-30.5 15.5q-9 0 -18 -6l-139 -97q-75 62 -155 113q-4 3 -9 3q-15 0 -30.5 -20t-15.5 -37q0 -8 6 -13q8 -7 23 -16q68 -49 108 -81l-119 -83q-16 -12 -16 -30q0 -17 12.5 -30.5t28.5 -13.5q11 0 21 7l137 94q99 -91 177.5 -204t112.5 -246
q-59 112 -142 155t-170 43q-122 0 -211 -52.5t-136.5 -147.5t-47.5 -219t48 -217t136.5 -143.5t205.5 -50.5q204 0 306 124.5t102 345.5q0 179 -69 342.5t-238 320.5l122 83q14 10 14 27zM385.5 642.5q77.5 88.5 222.5 88.5q83 0 153 -39t111.5 -115.5t41.5 -185.5
q0 -100 -36.5 -173t-107 -113t-168.5 -40q-85 0 -151.5 38.5t-104.5 112t-38 175.5q0 163 77.5 251.5z" />
    <glyph glyph-name="ntilde" unicode="&#xf1;" 
d="M397.5 961.5q13.5 -8.5 27.5 -8.5q16 0 22 12q14 34 29 51t34 17q6 0 9 -1q26 -6 90 -40q40 -20 68 -33t56 -20q18 -4 27 -4q78 0 126 125q3 14 -14 26t-34 12q-13 0 -17 -8t-15.5 -30t-23.5 -34t-26 -12t-38.5 11t-64.5 32l-37 18.5t-52 23.5t-40 12q-12 2 -16 2
q-29 0 -58 -20.5t-47.5 -51.5t-18.5 -60q0 -11 13.5 -19.5zM894 82h-146q-20 0 -31 -11.5t-11 -27.5q0 -17 12 -30t34 -13h345q20 0 31 12.5t11 29.5q0 16 -10.5 28t-29.5 12h-109v451q0 134 -70 207t-211 73q-68 0 -132 -23t-113 -62.5t-74 -88.5l-5 120q-2 39 -39 39
q-4 0 -18 -2l-164 -33q-17 -4 -25 -15.5t-8 -25.5q0 -16 11 -27t28 -11q10 0 20 3l108 22v-627h-108q-20 0 -31 -11.5t-11 -27.5q0 -17 12 -30t34 -13h303q23 0 36.5 12.5t13.5 29.5q0 16 -12.5 28t-35.5 12h-105v421q0 52 41 105t114.5 88t164.5 35q89 0 134.5 -50
t45.5 -141v-458z" />
    <glyph glyph-name="ograve" unicode="&#xf2;" 
d="M504 1227q-11 10 -28 10q-22 0 -40 -18t-18 -39q0 -18 19 -31l79 -50q185 -116 261 -160q4 -4 12 -4q13 0 23 11t10 24q0 15 -10 21q-150 100 -308 236zM249 179q53 -94 149 -145t222 -51t222 51t149 145t53 219q0 126 -53 220t-149 144.5t-222 50.5t-222 -50.5
t-149 -144.5t-53 -220q0 -125 53 -219zM341.5 570.5q37.5 75.5 109 118t169.5 42.5t169.5 -42.5t109 -118t37.5 -172.5q0 -98 -37.5 -173.5t-109 -117.5t-169.5 -42t-169.5 42t-109 117.5t-37.5 173.5q0 97 37.5 172.5z" />
    <glyph glyph-name="oacute" unicode="&#xf3;" 
d="M785.5 1242q-19.5 20 -42.5 20q-17 0 -31 -14l-271 -276q-7 -7 -7 -15q0 -9 7.5 -15.5t16.5 -6.5q7 0 11 4l322 234q14 10 14 28q0 21 -19.5 41zM249 179q53 -94 149 -145t222 -51t222 51t149 145t53 219q0 126 -53 220t-149 144.5t-222 50.5t-222 -50.5t-149 -144.5
t-53 -220q0 -125 53 -219zM341.5 570.5q37.5 75.5 109 118t169.5 42.5t169.5 -42.5t109 -118t37.5 -172.5q0 -98 -37.5 -173.5t-109 -117.5t-169.5 -42t-169.5 42t-109 117.5t-37.5 173.5q0 97 37.5 172.5z" />
    <glyph glyph-name="ocircumflex" unicode="&#xf4;" 
d="M404 981q-7 -7 -7 -17q0 -12 11.5 -20.5t25.5 -8.5q17 0 23 9l162 209l163 -209q6 -9 23 -9q14 0 25.5 8.5t11.5 20.5q0 10 -7 17l-184 283q-4 6 -13 9t-19 3q-24 0 -31 -12zM249 179q53 -94 149 -145t222 -51t222 51t149 145t53 219q0 126 -53 220t-149 144.5t-222 50.5
t-222 -50.5t-149 -144.5t-53 -220q0 -125 53 -219zM341.5 570.5q37.5 75.5 109 118t169.5 42.5t169.5 -42.5t109 -118t37.5 -172.5q0 -98 -37.5 -173.5t-109 -117.5t-169.5 -42t-169.5 42t-109 117.5t-37.5 173.5q0 97 37.5 172.5z" />
    <glyph glyph-name="otilde" unicode="&#xf5;" 
d="M382.5 961.5q13.5 -8.5 27.5 -8.5q16 0 22 12q14 34 29 51t34 17q6 0 9 -1q26 -6 90 -40q40 -20 68 -33t56 -20q18 -4 27 -4q78 0 126 125q3 14 -14 26t-34 12q-13 0 -17 -8t-15.5 -30t-23.5 -34t-26 -12t-38.5 11t-64.5 32l-37 18.5t-52 23.5t-40 12q-12 2 -16 2
q-29 0 -58 -20.5t-47.5 -51.5t-18.5 -60q0 -11 13.5 -19.5zM249 179q53 -94 149 -145t222 -51t222 51t149 145t53 219q0 126 -53 220t-149 144.5t-222 50.5t-222 -50.5t-149 -144.5t-53 -220q0 -125 53 -219zM341.5 570.5q37.5 75.5 109 118t169.5 42.5t169.5 -42.5
t109 -118t37.5 -172.5q0 -98 -37.5 -173.5t-109 -117.5t-169.5 -42t-169.5 42t-109 117.5t-37.5 173.5q0 97 37.5 172.5z" />
    <glyph glyph-name="odieresis" unicode="&#xf6;" 
d="M394 959q24 -24 59 -24t58.5 24t23.5 58q0 35 -24 59t-58 24t-58.5 -24t-24.5 -59q0 -34 24 -58zM729 959q24 -24 59 -24t58.5 24t23.5 58q0 35 -24 59t-58 24t-58.5 -24t-24.5 -59q0 -34 24 -58zM249 179q53 -94 149 -145t222 -51t222 51t149 145t53 219q0 126 -53 220
t-149 144.5t-222 50.5t-222 -50.5t-149 -144.5t-53 -220q0 -125 53 -219zM341.5 570.5q37.5 75.5 109 118t169.5 42.5t169.5 -42.5t109 -118t37.5 -172.5q0 -98 -37.5 -173.5t-109 -117.5t-169.5 -42t-169.5 42t-109 117.5t-37.5 173.5q0 97 37.5 172.5z" />
    <glyph glyph-name="divide" unicode="&#xf7;" 
d="M676.5 765q23.5 24 23.5 58q0 35 -23.5 58.5t-58.5 23.5t-59.5 -24t-24.5 -58t24.5 -58t59.5 -24t58.5 24zM313 516q12 -14 34 -14h547q21 0 33 13.5t12 33.5t-12 33.5t-33 13.5h-547q-23 0 -34.5 -13t-11.5 -32q0 -21 12 -35zM676 217.5q24 24.5 24 59.5t-23.5 58.5
t-58.5 23.5t-59.5 -24t-24.5 -58t25 -59t59 -25t58 24.5z" />
    <glyph glyph-name="oslash" unicode="&#xf8;" 
d="M988.5 622q55.5 -95 55.5 -224q0 -125 -53 -219t-149 -145t-222 -51q-83 0 -150 22l-60 -126q-10 -21 -30 -21q-15 0 -24 9t-9 25q0 7 3 13l59 124q-100 49 -156.5 144.5t-56.5 224.5q0 126 53 220t149 144.5t222 50.5q80 0 154 -22l60 126q7 17 27 17q15 0 24 -9t9 -25
q0 -6 -3 -12l-58 -121q100 -50 155.5 -145zM341 225.5q37 -75.5 106 -116.5l289 604q-51 18 -116 18q-98 0 -169.5 -42.5t-109 -118t-37.5 -172.5t37 -172.5zM789.5 107q71.5 42 109 117.5t37.5 173.5q0 96 -36.5 171t-104.5 117l-288 -604q53 -17 113 -17q98 0 169.5 42z
" />
    <glyph glyph-name="ugrave" unicode="&#xf9;" 
d="M516 1268q-11 10 -28 10q-22 0 -40 -18t-18 -39q0 -18 19 -31l79 -50q185 -116 261 -160q4 -4 12 -4q13 0 23 11t10 24q0 15 -10 21q-150 100 -308 236zM366 768q0 14 -9.5 24t-24.5 10q-4 0 -12 -2l-175 -35q-18 -4 -27 -14t-9 -24q0 -17 13 -30t33 -13q11 0 17 2l98 20
v-444q0 -83 34.5 -146t100.5 -98t156 -35q94 0 181 43t131 108l5 -87q1 -25 14 -37.5t33 -12.5h7l186 20q18 4 28 16.5t10 27.5t-10 25t-30 10h-6l-148 -11v683q0 14 -9.5 24t-24.5 10q-4 0 -12 -2l-174 -35q-19 -4 -28.5 -14.5t-9.5 -24.5q0 -17 13 -30t34 -13q9 0 18 3
l97 20v-475q-22 -46 -71.5 -84t-111.5 -60t-121 -22q-97 0 -146.5 53.5t-49.5 140.5v509z" />
    <glyph glyph-name="uacute" unicode="&#xfa;" 
d="M798.5 1283q-19.5 20 -42.5 20q-17 0 -31 -14l-271 -276q-7 -7 -7 -15q0 -9 7.5 -15.5t16.5 -6.5q7 0 11 4l322 234q14 10 14 28q0 21 -19.5 41zM366 768q0 14 -9.5 24t-24.5 10q-4 0 -12 -2l-175 -35q-18 -4 -27 -14t-9 -24q0 -17 13 -30t33 -13q11 0 17 2l98 20v-444
q0 -83 34.5 -146t100.5 -98t156 -35q94 0 181 43t131 108l5 -87q1 -25 14 -37.5t33 -12.5h7l186 20q18 4 28 16.5t10 27.5t-10 25t-30 10h-6l-148 -11v683q0 14 -9.5 24t-24.5 10q-4 0 -12 -2l-174 -35q-19 -4 -28.5 -14.5t-9.5 -24.5q0 -17 13 -30t34 -13q9 0 18 3l97 20
v-475q-22 -46 -71.5 -84t-111.5 -60t-121 -22q-97 0 -146.5 53.5t-49.5 140.5v509z" />
    <glyph glyph-name="ucircumflex" unicode="&#xfb;" 
d="M417 1022q-7 -7 -7 -17q0 -12 11.5 -20.5t25.5 -8.5q17 0 23 9l162 209l163 -209q6 -9 23 -9q14 0 25.5 8.5t11.5 20.5q0 10 -7 17l-184 283q-4 6 -13 9t-19 3q-24 0 -31 -12zM366 768q0 14 -9.5 24t-24.5 10q-4 0 -12 -2l-175 -35q-18 -4 -27 -14t-9 -24q0 -17 13 -30
t33 -13q11 0 17 2l98 20v-444q0 -83 34.5 -146t100.5 -98t156 -35q94 0 181 43t131 108l5 -87q1 -25 14 -37.5t33 -12.5h7l186 20q18 4 28 16.5t10 27.5t-10 25t-30 10h-6l-148 -11v683q0 14 -9.5 24t-24.5 10q-4 0 -12 -2l-174 -35q-19 -4 -28.5 -14.5t-9.5 -24.5
q0 -17 13 -30t34 -13q9 0 18 3l97 20v-475q-22 -46 -71.5 -84t-111.5 -60t-121 -22q-97 0 -146.5 53.5t-49.5 140.5v509z" />
    <glyph glyph-name="udieresis" unicode="&#xfc;" 
d="M407 959q24 -24 59 -24t58.5 24t23.5 58q0 35 -24 59t-58 24t-58.5 -24t-24.5 -59q0 -34 24 -58zM742 959q24 -24 59 -24t58.5 24t23.5 58q0 35 -24 59t-58 24t-58.5 -24t-24.5 -59q0 -34 24 -58zM366 768q0 14 -9.5 24t-24.5 10q-4 0 -12 -2l-175 -35q-18 -4 -27 -14
t-9 -24q0 -17 13 -30t33 -13q11 0 17 2l98 20v-444q0 -83 34.5 -146t100.5 -98t156 -35q94 0 181 43t131 108l5 -87q1 -25 14 -37.5t33 -12.5h7l186 20q18 4 28 16.5t10 27.5t-10 25t-30 10h-6l-148 -11v683q0 14 -9.5 24t-24.5 10q-4 0 -12 -2l-174 -35q-19 -4 -28.5 -14.5
t-9.5 -24.5q0 -17 13 -30t34 -13q9 0 18 3l97 20v-475q-22 -46 -71.5 -84t-111.5 -60t-121 -22q-97 0 -146.5 53.5t-49.5 140.5v509z" />
    <glyph glyph-name="yacute" unicode="&#xfd;" 
d="M787.5 1283q-19.5 20 -42.5 20q-17 0 -31 -14l-271 -276q-7 -7 -7 -15q0 -9 7.5 -15.5t16.5 -6.5q7 0 11 4l322 234q14 10 14 28q0 21 -19.5 41zM150 732q0 -40 41 -40h93q27 -59 115 -258q17 -38 79 -178t119 -258l-54 -139q-11 -29 -37.5 -57t-62.5 -45.5t-72 -17.5
q-68 0 -68 -48q0 -24 14.5 -38t53.5 -14q107 0 177.5 73.5t121.5 204.5l303 775h79q42 0 42 41t-46 41h-265q-40 0 -40 -42q0 -40 39 -40h89l-228 -597l-255 597h102q39 0 39 40q0 42 -41 42h-292q-46 0 -46 -42z" />
    <glyph glyph-name="thorn" unicode="&#xfe;" 
d="M362 1181l-234 -42q-16 -2 -24 -13.5t-8 -26.5q0 -17 10.5 -29.5t29.5 -12.5l8 1l169 24v-1370h-90q-19 0 -29.5 -12t-10.5 -28q0 -17 11 -29.5t31 -12.5h396q22 0 34 13t12 30q0 16 -11 27.5t-31 11.5h-216v377q60 -52 126.5 -79t157.5 -27q115 0 200.5 53.5t131.5 148
t46 213.5q0 121 -45 215t-129.5 147t-199.5 53q-89 0 -161.5 -34t-126.5 -89v460q0 15 -10 23.5t-26 8.5zM409 194v392q47 67 118.5 106t167.5 39q90 0 153 -45t95 -120.5t32 -167.5q0 -91 -33 -167t-98 -121t-157 -45q-175 0 -278 129z" />
    <glyph glyph-name="ydieresis" unicode="&#xff;" 
d="M396 959q24 -24 59 -24t58.5 24t23.5 58q0 35 -24 59t-58 24t-58.5 -24t-24.5 -59q0 -34 24 -58zM731 959q24 -24 59 -24t58.5 24t23.5 58q0 35 -24 59t-58 24t-58.5 -24t-24.5 -59q0 -34 24 -58zM150 732q0 -40 41 -40h93q27 -59 115 -258q17 -38 79 -178t119 -258
l-54 -139q-11 -29 -37.5 -57t-62.5 -45.5t-72 -17.5q-68 0 -68 -48q0 -24 14.5 -38t53.5 -14q107 0 177.5 73.5t121.5 204.5l303 775h79q42 0 42 41t-46 41h-265q-40 0 -40 -42q0 -40 39 -40h89l-228 -597l-255 597h102q39 0 39 40q0 42 -41 42h-292q-46 0 -46 -42z" />
    <glyph glyph-name="Amacron" unicode="&#x100;" 
d="M844.5 1425q-12.5 11 -36.5 11h-361q-50 0 -50 -43q0 -21 12 -32t39 -11h362q47 0 47 43q0 21 -12.5 32zM475.5 12.5q13.5 12.5 13.5 30.5q0 17 -13.5 30t-36.5 13h-159l112 306h483l107 -306h-186q-23 0 -36 -12.5t-13 -29.5q0 -18 13.5 -31t37.5 -13h366q23 0 36.5 13
t13.5 31q0 17 -12.5 29.5t-35.5 12.5h-79l-362 1020q-23 65 -81 65h-303q-23 0 -36 -13t-13 -30q0 -18 13 -30.5t37 -12.5h217l-385 -999h-85q-23 0 -36 -13t-13 -30q0 -18 13 -30.5t37 -12.5h348q24 0 37.5 12.5zM646 1072l199 -597h-420z" />
    <glyph glyph-name="amacron" unicode="&#x101;" 
d="M915.5 1051q-12.5 11 -36.5 11h-361q-50 0 -50 -43q0 -21 12 -32t39 -11h362q47 0 47 43q0 21 -12.5 32zM814 470l-73 -5q-163 -11 -259.5 -28t-162.5 -70t-66 -157q0 -103 63 -164.5t175 -61.5q104 0 192.5 37t137.5 92q12 -71 47 -95.5t86 -24.5q45 0 86.5 19.5
t73.5 53.5q10 10 10 25q0 16 -11 29t-26 13q-13 0 -24 -12q-17 -18 -46 -33.5t-55 -15.5q-24 0 -38 12.5t-14 47.5v312q0 122 -26 202.5t-91.5 123.5t-180.5 43q-102 0 -181 -27t-123 -75t-44 -108q0 -32 15.5 -52t44.5 -20q34 0 48 39t18 116q53 24 105.5 34.5t115.5 10.5
q112 0 157.5 -62t45.5 -179v-20zM675.5 98.5q-84.5 -33.5 -173.5 -33.5q-69 0 -110.5 34.5t-41.5 110.5q0 70 48 106t129.5 50.5t245.5 30.5l41 4v-212q-54 -57 -138.5 -90.5z" />
    <glyph glyph-name="Abreve" unicode="&#x102;" 
d="M474 1528q-12 0 -23 -7.5t-11 -16.5q0 -57 31.5 -91.5t74.5 -48.5t81 -14t81 14t74.5 48.5t31.5 91.5q0 9 -11 16.5t-23 7.5q-18 0 -23 -16q-8 -49 -45 -76.5t-85 -27.5t-85 27.5t-45 76.5q-5 16 -23 16zM475.5 12.5q13.5 12.5 13.5 30.5q0 17 -13.5 30t-36.5 13h-159
l112 306h483l107 -306h-186q-23 0 -36 -12.5t-13 -29.5q0 -18 13.5 -31t37.5 -13h366q23 0 36.5 13t13.5 31q0 17 -12.5 29.5t-35.5 12.5h-79l-362 1020q-23 65 -81 65h-303q-23 0 -36 -13t-13 -30q0 -18 13 -30.5t37 -12.5h217l-385 -999h-85q-23 0 -36 -13t-13 -30
q0 -18 13 -30.5t37 -12.5h348q24 0 37.5 12.5zM646 1072l199 -597h-420z" />
    <glyph glyph-name="abreve" unicode="&#x103;" 
d="M546 1154q-12 0 -23 -7.5t-11 -16.5q0 -57 31.5 -91.5t74.5 -48.5t81 -14t81 14t74.5 48.5t31.5 91.5q0 9 -11 16.5t-23 7.5q-18 0 -23 -16q-8 -49 -45 -76.5t-85 -27.5t-85 27.5t-45 76.5q-5 16 -23 16zM814 470l-73 -5q-163 -11 -259.5 -28t-162.5 -70t-66 -157
q0 -103 63 -164.5t175 -61.5q104 0 192.5 37t137.5 92q12 -71 47 -95.5t86 -24.5q45 0 86.5 19.5t73.5 53.5q10 10 10 25q0 16 -11 29t-26 13q-13 0 -24 -12q-17 -18 -46 -33.5t-55 -15.5q-24 0 -38 12.5t-14 47.5v312q0 122 -26 202.5t-91.5 123.5t-180.5 43
q-102 0 -181 -27t-123 -75t-44 -108q0 -32 15.5 -52t44.5 -20q34 0 48 39t18 116q53 24 105.5 34.5t115.5 10.5q112 0 157.5 -62t45.5 -179v-20zM675.5 98.5q-84.5 -33.5 -173.5 -33.5q-69 0 -110.5 34.5t-41.5 110.5q0 70 48 106t129.5 50.5t245.5 30.5l41 4v-212
q-54 -57 -138.5 -90.5z" />
    <glyph glyph-name="Aogonek" unicode="&#x104;" 
d="M1201.5 73.5q12.5 -12.5 12.5 -29.5q0 -18 -13.5 -31t-36.5 -13h-103q-47 -93 -79.5 -164t-32.5 -110q0 -30 17 -39t47 -9h23l23 1q26 0 26 -15q0 -17 -17.5 -35t-45.5 -30t-59 -12q-51 0 -81.5 26.5t-30.5 83.5q0 31 19 86t55.5 114t84.5 103h-212q-24 0 -37.5 13
t-13.5 31q0 17 13 29.5t36 12.5h186l-107 306h-483l-112 -306h159q23 0 36.5 -13t13.5 -30q0 -18 -13.5 -30.5t-37.5 -12.5h-348q-24 0 -37 12.5t-13 30.5q0 17 13 30t36 13h85l385 999h-217q-24 0 -37 12.5t-13 30.5q0 17 13 30t36 13h303q58 0 81 -65l362 -1020h79
q23 0 35.5 -12.5zM425 475h420l-199 597z" />
    <glyph glyph-name="aogonek" unicode="&#x105;" 
d="M1113 120q11 -13 11 -29q0 -15 -10 -25q-52 -55 -122 -69q-2 -5 -6.5 -13t-8.5 -17q-42 -83 -72.5 -152t-30.5 -105q0 -30 17 -39t47 -9h23l23 1q26 0 26 -15q0 -17 -17.5 -35t-45.5 -30t-59 -12q-51 0 -81.5 26.5t-30.5 83.5q0 33 20.5 90t59 117.5t89.5 104.5
q-48 2 -80.5 27.5t-43.5 92.5q-49 -55 -137.5 -92t-192.5 -37q-112 0 -175 61.5t-63 164.5q0 104 66 157t162.5 70t259.5 28l73 5v20q0 117 -45.5 179t-157.5 62q-63 0 -115.5 -10.5t-105.5 -34.5q-4 -77 -18 -116t-48 -39q-29 0 -44.5 20t-15.5 52q0 60 44 108t123 75
t181 27q115 0 180.5 -43t91.5 -123.5t26 -202.5v-312q0 -35 14 -47.5t38 -12.5q26 0 55 15.5t46 33.5q11 12 24 12q15 0 26 -13zM814 401l-41 -4q-164 -16 -245.5 -30.5t-129.5 -50.5t-48 -106q0 -76 41.5 -110.5t110.5 -34.5q89 0 173.5 33.5t138.5 90.5v212z" />
    <glyph glyph-name="Cacute" unicode="&#x106;" 
d="M804.5 1657q-19.5 20 -42.5 20q-17 0 -31 -14l-271 -276q-7 -7 -7 -15q0 -9 7.5 -15.5t16.5 -6.5q7 0 11 4l322 234q14 10 14 28q0 21 -19.5 41zM1128 373.5q-18 13.5 -39 13.5q-30 0 -40 -28q-41 -136 -139 -213t-240 -77q-119 0 -220 63.5t-161.5 184t-60.5 283.5
q0 145 54 259t154 178t235 64q89 0 164 -34.5t125.5 -96.5t65.5 -143q4 -22 17 -34.5t31 -12.5q19 0 32.5 12t13.5 35v293q0 24 -14.5 37.5t-34.5 13.5t-34.5 -13.5t-14.5 -36.5v-106q-27 49 -80.5 88t-124.5 61.5t-149 22.5q-153 0 -275 -73t-191.5 -205t-69.5 -302
q0 -187 69.5 -328.5t191.5 -218.5t276 -77q137 0 237.5 51t159.5 131.5t79 170.5q1 2 1 7q0 17 -18 30.5z" />
    <glyph glyph-name="cacute" unicode="&#x107;" 
d="M746.5 1283q-19.5 20 -42.5 20q-17 0 -31 -14l-271 -276q-7 -7 -7 -15q0 -9 7.5 -15.5t16.5 -6.5q7 0 11 4l322 234q14 10 14 28q0 21 -19.5 41zM239 180.5q56 -95.5 158 -146.5t235 -51q85 0 180.5 32.5t147.5 89.5q18 20 18 42q0 21 -10 31t-25 10q-24 0 -41 -16
q-62 -57 -124 -82t-154 -25q-158 0 -251.5 86.5t-93.5 255.5q0 101 44 173.5t127.5 111.5t199.5 39q54 0 103.5 -10t99.5 -35l5 -41q10 -88 21 -124.5t40 -36.5t44.5 22t15.5 58q0 129 -93 189t-251 60q-125 0 -228 -49t-163.5 -141t-60.5 -216q0 -131 56 -226.5z" />
    <glyph glyph-name="Ccircumflex" unicode="&#x108;" 
d="M424 1396q-7 -7 -7 -17q0 -12 11.5 -20.5t25.5 -8.5q17 0 23 9l162 209l163 -209q6 -9 23 -9q14 0 25.5 8.5t11.5 20.5q0 10 -7 17l-184 283q-4 6 -13 9t-19 3q-24 0 -31 -12zM1128 373.5q-18 13.5 -39 13.5q-30 0 -40 -28q-41 -136 -139 -213t-240 -77q-119 0 -220 63.5
t-161.5 184t-60.5 283.5q0 145 54 259t154 178t235 64q89 0 164 -34.5t125.5 -96.5t65.5 -143q4 -22 17 -34.5t31 -12.5q19 0 32.5 12t13.5 35v293q0 24 -14.5 37.5t-34.5 13.5t-34.5 -13.5t-14.5 -36.5v-106q-27 49 -80.5 88t-124.5 61.5t-149 22.5q-153 0 -275 -73
t-191.5 -205t-69.5 -302q0 -187 69.5 -328.5t191.5 -218.5t276 -77q137 0 237.5 51t159.5 131.5t79 170.5q1 2 1 7q0 17 -18 30.5z" />
    <glyph glyph-name="ccircumflex" unicode="&#x109;" 
d="M366 1022q-7 -7 -7 -17q0 -12 11.5 -20.5t25.5 -8.5q17 0 23 9l162 209l163 -209q6 -9 23 -9q14 0 25.5 8.5t11.5 20.5q0 10 -7 17l-184 283q-4 6 -13 9t-19 3q-24 0 -31 -12zM239 180.5q56 -95.5 158 -146.5t235 -51q85 0 180.5 32.5t147.5 89.5q18 20 18 42
q0 21 -10 31t-25 10q-24 0 -41 -16q-62 -57 -124 -82t-154 -25q-158 0 -251.5 86.5t-93.5 255.5q0 101 44 173.5t127.5 111.5t199.5 39q54 0 103.5 -10t99.5 -35l5 -41q10 -88 21 -124.5t40 -36.5t44.5 22t15.5 58q0 129 -93 189t-251 60q-125 0 -228 -49t-163.5 -141
t-60.5 -216q0 -131 56 -226.5z" />
    <glyph glyph-name="Cdotaccent" unicode="&#x10a;" 
d="M581 1333q24 -24 59 -24q34 0 58 24t24 58q0 35 -24 59t-58 24q-35 0 -59 -24t-24 -59q0 -34 24 -58zM1128 373.5q-18 13.5 -39 13.5q-30 0 -40 -28q-41 -136 -139 -213t-240 -77q-119 0 -220 63.5t-161.5 184t-60.5 283.5q0 145 54 259t154 178t235 64q89 0 164 -34.5
t125.5 -96.5t65.5 -143q4 -22 17 -34.5t31 -12.5q19 0 32.5 12t13.5 35v293q0 24 -14.5 37.5t-34.5 13.5t-34.5 -13.5t-14.5 -36.5v-106q-27 49 -80.5 88t-124.5 61.5t-149 22.5q-153 0 -275 -73t-191.5 -205t-69.5 -302q0 -187 69.5 -328.5t191.5 -218.5t276 -77
q137 0 237.5 51t159.5 131.5t79 170.5q1 2 1 7q0 17 -18 30.5z" />
    <glyph glyph-name="cdotaccent" unicode="&#x10b;" 
d="M523 959q24 -24 59 -24q34 0 58 24t24 58q0 35 -24 59t-58 24q-35 0 -59 -24t-24 -59q0 -34 24 -58zM239 180.5q56 -95.5 158 -146.5t235 -51q85 0 180.5 32.5t147.5 89.5q18 20 18 42q0 21 -10 31t-25 10q-24 0 -41 -16q-62 -57 -124 -82t-154 -25q-158 0 -251.5 86.5
t-93.5 255.5q0 101 44 173.5t127.5 111.5t199.5 39q54 0 103.5 -10t99.5 -35l5 -41q10 -88 21 -124.5t40 -36.5t44.5 22t15.5 58q0 129 -93 189t-251 60q-125 0 -228 -49t-163.5 -141t-60.5 -216q0 -131 56 -226.5z" />
    <glyph glyph-name="Ccaron" unicode="&#x10c;" 
d="M855 1644q7 7 7 17q0 12 -11.5 21t-25.5 9q-17 0 -23 -9l-163 -209l-162 209q-6 9 -23 9q-14 0 -25.5 -9t-11.5 -21q0 -10 7 -17l184 -283q7 -11 31 -11q25 0 32 11zM1128 373.5q-18 13.5 -39 13.5q-30 0 -40 -28q-41 -136 -139 -213t-240 -77q-119 0 -220 63.5
t-161.5 184t-60.5 283.5q0 145 54 259t154 178t235 64q89 0 164 -34.5t125.5 -96.5t65.5 -143q4 -22 17 -34.5t31 -12.5q19 0 32.5 12t13.5 35v293q0 24 -14.5 37.5t-34.5 13.5t-34.5 -13.5t-14.5 -36.5v-106q-27 49 -80.5 88t-124.5 61.5t-149 22.5q-153 0 -275 -73
t-191.5 -205t-69.5 -302q0 -187 69.5 -328.5t191.5 -218.5t276 -77q137 0 237.5 51t159.5 131.5t79 170.5q1 2 1 7q0 17 -18 30.5z" />
    <glyph glyph-name="ccaron" unicode="&#x10d;" 
d="M797 1270q7 7 7 17q0 12 -11.5 21t-25.5 9q-17 0 -23 -9l-163 -209l-162 209q-6 9 -23 9q-14 0 -25.5 -9t-11.5 -21q0 -10 7 -17l184 -283q7 -11 31 -11q25 0 32 11zM239 180.5q56 -95.5 158 -146.5t235 -51q85 0 180.5 32.5t147.5 89.5q18 20 18 42q0 21 -10 31t-25 10
q-24 0 -41 -16q-62 -57 -124 -82t-154 -25q-158 0 -251.5 86.5t-93.5 255.5q0 101 44 173.5t127.5 111.5t199.5 39q54 0 103.5 -10t99.5 -35l5 -41q10 -88 21 -124.5t40 -36.5t44.5 22t15.5 58q0 129 -93 189t-251 60q-125 0 -228 -49t-163.5 -141t-60.5 -216
q0 -131 56 -226.5z" />
    <glyph glyph-name="Dcaron" unicode="&#x10e;" 
d="M808 1644q7 7 7 17q0 12 -11.5 21t-25.5 9q-17 0 -23 -9l-163 -209l-162 209q-6 9 -23 9q-14 0 -25.5 -9t-11.5 -21q0 -10 7 -17l184 -283q7 -11 31 -11q25 0 32 11zM157 1171q-23 0 -36.5 -13t-13.5 -31q0 -17 12.5 -29.5t35.5 -12.5h159v-999h-163q-23 0 -36.5 -13
t-13.5 -30q0 -18 13.5 -30.5t37.5 -12.5h361q280 0 425.5 141.5t145.5 449.5q0 292 -151 436t-418 144h-358zM410 86v999h124q219 0 336.5 -128t117.5 -366q0 -256 -112 -380.5t-356 -124.5h-110z" />
    <glyph glyph-name="dcaron" unicode="&#x10f;" 
d="M1432.5 1015.5q30.5 -23.5 77.5 -23.5q0 -41 -33.5 -82.5t-75.5 -71.5q-12 -9 -12 -21q0 -10 8.5 -18.5t19.5 -8.5q7 0 10 2q43 22 86 63.5t71 95t28 108.5q0 57 -32 89t-80 32q-39 0 -68.5 -25t-29.5 -70q0 -46 30.5 -69.5zM921 -3l186 20q18 4 28 16.5t10 27.5t-10 25
t-30 10h-6l-148 -11v1056q0 39 -41 39q-4 0 -20 -2l-189 -19q-17 -3 -25 -15t-8 -26q0 -16 11 -27t28 -11q6 0 11 1t9 2l128 8v-384q-60 52 -126.5 79t-157.5 27q-115 0 -200.5 -53.5t-131.5 -148t-46 -213.5q0 -121 46 -215t131.5 -147t200.5 -53q92 0 169.5 34.5
t123.5 89.5l3 -60q1 -25 14 -37.5t33 -12.5h7zM855 602v-392q-101 -145 -282 -145q-90 0 -154 45t-97 121t-33 167t33 167t98 121t157 45q175 0 278 -129z" />
    <glyph glyph-name="Dcroat" unicode="&#x110;" 
d="M314 86h-163q-23 0 -36.5 -13t-13.5 -30q0 -18 13.5 -30.5t37.5 -12.5h361q280 0 425.5 141.5t145.5 449.5q0 292 -151 436t-418 144h-358q-23 0 -36.5 -13t-13.5 -31q0 -17 12.5 -29.5t35.5 -12.5h159v-437h-146q-42 0 -42 -37q0 -39 46 -39h142v-486zM420 86v486h185
q41 0 41 39q0 17 -8 27t-31 10h-187v437h114q218 0 331 -127.5t113 -366.5q0 -171 -46 -282t-147 -167t-265 -56h-100z" />
    <glyph glyph-name="dcroat" unicode="&#x111;" 
d="M1135 86q10 -10 10 -25t-10 -27.5t-28 -16.5l-186 -20h-7q-20 0 -33 12.5t-14 37.5l-3 60q-46 -55 -123.5 -89.5t-169.5 -34.5q-115 0 -200.5 53t-131.5 147t-46 215q0 119 46 213.5t131.5 148t200.5 53.5q91 0 157.5 -27t126.5 -79v200h-194q-28 0 -39.5 8.5t-11.5 28.5
t12 27.5t38 7.5h195v112l-128 -8q-4 -1 -9 -2t-11 -1q-17 0 -28 11t-11 27q0 14 8 26t25 15l189 19q16 2 20 2q41 0 41 -39v-162h70q26 0 37.5 -7.5t11.5 -27.5t-11 -28.5t-36 -8.5h-72v-822l148 11h6q20 0 30 -10zM855 602q-103 129 -278 129q-92 0 -157 -45t-98 -121
t-33 -167t33 -167t97 -121t154 -45q181 0 282 145v392z" />
    <glyph glyph-name="Emacron" unicode="&#x112;" 
d="M837.5 1425q-12.5 11 -36.5 11h-361q-50 0 -50 -43q0 -21 12 -32t39 -11h362q47 0 47 43q0 21 -12.5 32zM826 818.5q-11 13.5 -27 13.5q-15 0 -26.5 -12t-13.5 -33l-13 -133h-326v431h609l14 -244q1 -18 13.5 -28t28.5 -10t28 11.5t12 32.5v270q0 25 -15.5 39.5
t-40.5 14.5h-878q-23 0 -36.5 -13t-13.5 -31q0 -17 12.5 -29.5t35.5 -12.5h135v-1000h-170q-23 0 -36.5 -12.5t-13.5 -29.5t13.5 -30t37.5 -13h926q25 0 40.5 14t15.5 39v270q0 25 -12.5 38.5t-29.5 13.5t-30 -11t-14 -28l-16 -251h-615v492h326l13 -148q1 -20 13 -31.5
t27 -11.5q16 0 27 13t11 38v342q0 26 -11 39.5z" />
    <glyph glyph-name="emacron" unicode="&#x113;" 
d="M839.5 1051q-12.5 11 -36.5 11h-361q-50 0 -50 -43q0 -21 12 -32t39 -11h362q47 0 47 43q0 21 -12.5 32zM269 180.5q57 -95.5 159.5 -146.5t236.5 -51q85 0 182.5 33t149.5 89q18 20 18 42q0 18 -11 31t-29 13q-20 0 -41 -17q-57 -54 -129.5 -81.5t-147.5 -27.5
q-154 0 -249 82t-100 240l629 5q35 0 56 24.5t21 62.5q0 107 -46.5 182t-128 113.5t-185.5 38.5q-122 0 -222.5 -49t-160 -141t-59.5 -216q0 -131 57 -226.5zM867 652q55 -79 62 -187l-618 -4q18 128 108.5 199t236.5 71q156 0 211 -79z" />
    <glyph glyph-name="Ebreve" unicode="&#x114;" 
d="M468 1528q-12 0 -23 -7.5t-11 -16.5q0 -57 31.5 -91.5t74.5 -48.5t81 -14t81 14t74.5 48.5t31.5 91.5q0 9 -11 16.5t-23 7.5q-18 0 -23 -16q-8 -49 -45 -76.5t-85 -27.5t-85 27.5t-45 76.5q-5 16 -23 16zM826 818.5q-11 13.5 -27 13.5q-15 0 -26.5 -12t-13.5 -33
l-13 -133h-326v431h609l14 -244q1 -18 13.5 -28t28.5 -10t28 11.5t12 32.5v270q0 25 -15.5 39.5t-40.5 14.5h-878q-23 0 -36.5 -13t-13.5 -31q0 -17 12.5 -29.5t35.5 -12.5h135v-1000h-170q-23 0 -36.5 -12.5t-13.5 -29.5t13.5 -30t37.5 -13h926q25 0 40.5 14t15.5 39v270
q0 25 -12.5 38.5t-29.5 13.5t-30 -11t-14 -28l-16 -251h-615v492h326l13 -148q1 -20 13 -31.5t27 -11.5q16 0 27 13t11 38v342q0 26 -11 39.5z" />
    <glyph glyph-name="ebreve" unicode="&#x115;" 
d="M468 1154q-12 0 -23 -7.5t-11 -16.5q0 -57 31.5 -91.5t74.5 -48.5t81 -14t81 14t74.5 48.5t31.5 91.5q0 9 -11 16.5t-23 7.5q-18 0 -23 -16q-8 -49 -45 -76.5t-85 -27.5t-85 27.5t-45 76.5q-5 16 -23 16zM269 180.5q57 -95.5 159.5 -146.5t236.5 -51q85 0 182.5 33
t149.5 89q18 20 18 42q0 18 -11 31t-29 13q-20 0 -41 -17q-57 -54 -129.5 -81.5t-147.5 -27.5q-154 0 -249 82t-100 240l629 5q35 0 56 24.5t21 62.5q0 107 -46.5 182t-128 113.5t-185.5 38.5q-122 0 -222.5 -49t-160 -141t-59.5 -216q0 -131 57 -226.5zM867 652
q55 -79 62 -187l-618 -4q18 128 108.5 199t236.5 71q156 0 211 -79z" />
    <glyph glyph-name="Edotaccent" unicode="&#x116;" 
d="M562 1333q24 -24 59 -24q34 0 58 24t24 58q0 35 -24 59t-58 24q-35 0 -59 -24t-24 -59q0 -34 24 -58zM826 818.5q-11 13.5 -27 13.5q-15 0 -26.5 -12t-13.5 -33l-13 -133h-326v431h609l14 -244q1 -18 13.5 -28t28.5 -10t28 11.5t12 32.5v270q0 25 -15.5 39.5t-40.5 14.5
h-878q-23 0 -36.5 -13t-13.5 -31q0 -17 12.5 -29.5t35.5 -12.5h135v-1000h-170q-23 0 -36.5 -12.5t-13.5 -29.5t13.5 -30t37.5 -13h926q25 0 40.5 14t15.5 39v270q0 25 -12.5 38.5t-29.5 13.5t-30 -11t-14 -28l-16 -251h-615v492h326l13 -148q1 -20 13 -31.5t27 -11.5
q16 0 27 13t11 38v342q0 26 -11 39.5z" />
    <glyph glyph-name="edotaccent" unicode="&#x117;" 
d="M555 959q24 -24 59 -24q34 0 58 24t24 58q0 35 -24 59t-58 24q-35 0 -59 -24t-24 -59q0 -34 24 -58zM269 180.5q57 -95.5 159.5 -146.5t236.5 -51q85 0 182.5 33t149.5 89q18 20 18 42q0 18 -11 31t-29 13q-20 0 -41 -17q-57 -54 -129.5 -81.5t-147.5 -27.5
q-154 0 -249 82t-100 240l629 5q35 0 56 24.5t21 62.5q0 107 -46.5 182t-128 113.5t-185.5 38.5q-122 0 -222.5 -49t-160 -141t-59.5 -216q0 -131 57 -226.5zM867 652q55 -79 62 -187l-618 -4q18 128 108.5 199t236.5 71q156 0 211 -79z" />
    <glyph glyph-name="Eogonek" unicode="&#x118;" 
d="M1124.5 361.5q12.5 -13.5 12.5 -38.5v-270q0 -25 -15.5 -39t-40.5 -14h-308q-47 -93 -79.5 -164t-32.5 -110q0 -30 17 -39t47 -9h23l23 1q26 0 26 -15q0 -17 -17.5 -35t-45.5 -30t-59 -12q-51 0 -81.5 26.5t-30.5 83.5q0 31 19 86t55.5 114t84.5 103h-567q-24 0 -37.5 13
t-13.5 30t13.5 29.5t36.5 12.5h170v1000h-135q-23 0 -35.5 12.5t-12.5 29.5q0 18 13.5 31t36.5 13h878q25 0 40.5 -14.5t15.5 -39.5v-270q0 -21 -12 -32.5t-28 -11.5t-28.5 10t-13.5 28l-14 244h-609v-431h326l13 133q2 21 13.5 33t26.5 12q16 0 27 -13.5t11 -39.5v-342
q0 -25 -11 -38t-27 -13q-15 0 -27 11.5t-13 31.5l-13 148h-326v-492h615l16 251q1 17 14 28t30 11t29.5 -13.5z" />
    <glyph glyph-name="eogonek" unicode="&#x119;" 
d="M1004 178q11 -13 11 -31q0 -22 -18 -42q-37 -40 -98 -68.5t-130 -42.5l-16 -33q-101 -196 -101 -252q0 -30 17 -39t47 -9h23l23 1q26 0 26 -15q0 -17 -17.5 -35t-45.5 -30t-59 -12q-51 0 -81.5 26.5t-30.5 83.5q0 32 19.5 87.5t56.5 115t86 103.5q-27 -3 -51 -3
q-134 0 -236.5 51t-159.5 146.5t-57 226.5q0 124 59.5 216t160 141t222.5 49q104 0 185.5 -38.5t128 -113.5t46.5 -182q0 -38 -21 -62.5t-56 -24.5l-629 -5q5 -158 100 -240t249 -82q75 0 147.5 27.5t129.5 81.5q21 17 41 17q18 0 29 -13zM419.5 660q-90.5 -71 -108.5 -199
l618 4q-7 108 -62 187t-211 79q-146 0 -236.5 -71z" />
    <glyph glyph-name="Ecaron" unicode="&#x11a;" 
d="M836 1644q7 7 7 17q0 12 -11.5 21t-25.5 9q-17 0 -23 -9l-163 -209l-162 209q-6 9 -23 9q-14 0 -25.5 -9t-11.5 -21q0 -10 7 -17l184 -283q7 -11 31 -11q25 0 32 11zM826 818.5q-11 13.5 -27 13.5q-15 0 -26.5 -12t-13.5 -33l-13 -133h-326v431h609l14 -244
q1 -18 13.5 -28t28.5 -10t28 11.5t12 32.5v270q0 25 -15.5 39.5t-40.5 14.5h-878q-23 0 -36.5 -13t-13.5 -31q0 -17 12.5 -29.5t35.5 -12.5h135v-1000h-170q-23 0 -36.5 -12.5t-13.5 -29.5t13.5 -30t37.5 -13h926q25 0 40.5 14t15.5 39v270q0 25 -12.5 38.5t-29.5 13.5
t-30 -11t-14 -28l-16 -251h-615v492h326l13 -148q1 -20 13 -31.5t27 -11.5q16 0 27 13t11 38v342q0 26 -11 39.5z" />
    <glyph glyph-name="ecaron" unicode="&#x11b;" 
d="M837 1270q7 7 7 17q0 12 -11.5 21t-25.5 9q-17 0 -23 -9l-163 -209l-162 209q-6 9 -23 9q-14 0 -25.5 -9t-11.5 -21q0 -10 7 -17l184 -283q7 -11 31 -11q25 0 32 11zM269 180.5q57 -95.5 159.5 -146.5t236.5 -51q85 0 182.5 33t149.5 89q18 20 18 42q0 18 -11 31t-29 13
q-20 0 -41 -17q-57 -54 -129.5 -81.5t-147.5 -27.5q-154 0 -249 82t-100 240l629 5q35 0 56 24.5t21 62.5q0 107 -46.5 182t-128 113.5t-185.5 38.5q-122 0 -222.5 -49t-160 -141t-59.5 -216q0 -131 57 -226.5zM867 652q55 -79 62 -187l-618 -4q18 128 108.5 199t236.5 71
q156 0 211 -79z" />
    <glyph glyph-name="Gcircumflex" unicode="&#x11c;" 
d="M426 1396q-7 -7 -7 -17q0 -12 11.5 -20.5t25.5 -8.5q17 0 23 9l162 209l163 -209q6 -9 23 -9q14 0 25.5 8.5t11.5 20.5q0 10 -7 17l-184 283q-4 6 -13 9t-19 3q-24 0 -31 -12zM1181.5 523q13.5 13 13.5 31q0 17 -13 29.5t-36 12.5h-284q-23 0 -36 -12.5t-13 -29.5
q0 -18 13.5 -31t36.5 -13h124v-178q-38 -119 -134.5 -191t-245.5 -72q-119 0 -215 63.5t-151.5 183.5t-55.5 284q0 147 49 260t144.5 177t229.5 64q89 0 164 -34.5t125.5 -96.5t65.5 -143q4 -22 17 -34.5t31 -12.5q19 0 32.5 12t13.5 35v293q0 24 -14.5 37.5t-34.5 13.5
t-34.5 -13.5t-14.5 -36.5v-106q-27 49 -80.5 88t-124.5 61.5t-149 22.5q-152 0 -269.5 -72.5t-182 -204t-64.5 -303.5q0 -188 65 -329.5t182 -218t270 -76.5q88 0 166 24.5t134 68t81 99.5v-124q0 -28 14.5 -43.5t34.5 -15.5q19 0 33 15t14 42v461h61q24 0 37.5 13z" />
    <glyph glyph-name="gcircumflex" unicode="&#x11d;" 
d="M507 1086q-7 -7 -7 -17q0 -12 11.5 -20.5t25.5 -8.5q17 0 23 9l162 209l163 -209q6 -9 23 -9q14 0 25.5 8.5t11.5 20.5q0 10 -7 17l-184 283q-4 6 -13 9t-19 3q-24 0 -31 -12zM424.5 238.5q25.5 22.5 69 35.5t94.5 13q169 0 252.5 61t83.5 192q0 90 -57 161l169 74
q70 0 101.5 14t31.5 37q0 51 -58 51q-59 0 -121 -42l-152 -101q-47 39 -109 59t-130 20q-89 0 -162.5 -29.5t-117 -90t-43.5 -148.5q0 -82 43 -130.5t129 -83.5q-29 -4 -63 -24.5t-58 -53t-24 -68.5q0 -45 23.5 -74.5t70.5 -52.5q-53 -26 -86 -79.5t-33 -125.5
q0 -110 86 -156.5t221 -46.5q107 0 200.5 26t151 79t57.5 131q0 92 -40 140t-115 65.5t-198 17.5h-93q-62 0 -94.5 10.5t-43.5 28t-11 42.5q0 26 25.5 48.5zM433.5 407.5q-61.5 46.5 -61.5 134.5q0 95 63 142t162 47q101 0 166 -47.5t65 -149.5q0 -95 -66 -134t-171 -39
q-96 0 -157.5 46.5zM797 23.5q54 -13.5 77.5 -46.5t23.5 -95q0 -78 -94.5 -114t-220.5 -36q-108 0 -158.5 31.5t-50.5 114.5q0 28 13.5 62.5t33.5 62t39 34.5h184q99 0 153 -13.5z" />
    <glyph glyph-name="Gbreve" unicode="&#x11e;" 
d="M489 1528q-12 0 -23 -7.5t-11 -16.5q0 -57 31.5 -91.5t74.5 -48.5t81 -14t81 14t74.5 48.5t31.5 91.5q0 9 -11 16.5t-23 7.5q-18 0 -23 -16q-8 -49 -45 -76.5t-85 -27.5t-85 27.5t-45 76.5q-5 16 -23 16zM1181.5 523q13.5 13 13.5 31q0 17 -13 29.5t-36 12.5h-284
q-23 0 -36 -12.5t-13 -29.5q0 -18 13.5 -31t36.5 -13h124v-178q-38 -119 -134.5 -191t-245.5 -72q-119 0 -215 63.5t-151.5 183.5t-55.5 284q0 147 49 260t144.5 177t229.5 64q89 0 164 -34.5t125.5 -96.5t65.5 -143q4 -22 17 -34.5t31 -12.5q19 0 32.5 12t13.5 35v293
q0 24 -14.5 37.5t-34.5 13.5t-34.5 -13.5t-14.5 -36.5v-106q-27 49 -80.5 88t-124.5 61.5t-149 22.5q-152 0 -269.5 -72.5t-182 -204t-64.5 -303.5q0 -188 65 -329.5t182 -218t270 -76.5q88 0 166 24.5t134 68t81 99.5v-124q0 -28 14.5 -43.5t34.5 -15.5q19 0 33 15t14 42
v461h61q24 0 37.5 13z" />
    <glyph glyph-name="gbreve" unicode="&#x11f;" 
d="M570 1218q-12 0 -23 -7.5t-11 -16.5q0 -57 31.5 -91.5t74.5 -48.5t81 -14t81 14t74.5 48.5t31.5 91.5q0 9 -11 16.5t-23 7.5q-18 0 -23 -16q-8 -49 -45 -76.5t-85 -27.5t-85 27.5t-45 76.5q-5 16 -23 16zM424.5 238.5q25.5 22.5 69 35.5t94.5 13q169 0 252.5 61t83.5 192
q0 90 -57 161l169 74q70 0 101.5 14t31.5 37q0 51 -58 51q-59 0 -121 -42l-152 -101q-47 39 -109 59t-130 20q-89 0 -162.5 -29.5t-117 -90t-43.5 -148.5q0 -82 43 -130.5t129 -83.5q-29 -4 -63 -24.5t-58 -53t-24 -68.5q0 -45 23.5 -74.5t70.5 -52.5q-53 -26 -86 -79.5
t-33 -125.5q0 -110 86 -156.5t221 -46.5q107 0 200.5 26t151 79t57.5 131q0 92 -40 140t-115 65.5t-198 17.5h-93q-62 0 -94.5 10.5t-43.5 28t-11 42.5q0 26 25.5 48.5zM433.5 407.5q-61.5 46.5 -61.5 134.5q0 95 63 142t162 47q101 0 166 -47.5t65 -149.5q0 -95 -66 -134
t-171 -39q-96 0 -157.5 46.5zM797 23.5q54 -13.5 77.5 -46.5t23.5 -95q0 -78 -94.5 -114t-220.5 -36q-108 0 -158.5 31.5t-50.5 114.5q0 28 13.5 62.5t33.5 62t39 34.5h184q99 0 153 -13.5z" />
    <glyph glyph-name="Gdotaccent" unicode="&#x120;" 
d="M583 1333q24 -24 59 -24q34 0 58 24t24 58q0 35 -24 59t-58 24q-35 0 -59 -24t-24 -59q0 -34 24 -58zM1181.5 523q13.5 13 13.5 31q0 17 -13 29.5t-36 12.5h-284q-23 0 -36 -12.5t-13 -29.5q0 -18 13.5 -31t36.5 -13h124v-178q-38 -119 -134.5 -191t-245.5 -72
q-119 0 -215 63.5t-151.5 183.5t-55.5 284q0 147 49 260t144.5 177t229.5 64q89 0 164 -34.5t125.5 -96.5t65.5 -143q4 -22 17 -34.5t31 -12.5q19 0 32.5 12t13.5 35v293q0 24 -14.5 37.5t-34.5 13.5t-34.5 -13.5t-14.5 -36.5v-106q-27 49 -80.5 88t-124.5 61.5t-149 22.5
q-152 0 -269.5 -72.5t-182 -204t-64.5 -303.5q0 -188 65 -329.5t182 -218t270 -76.5q88 0 166 24.5t134 68t81 99.5v-124q0 -28 14.5 -43.5t34.5 -15.5q19 0 33 15t14 42v461h61q24 0 37.5 13z" />
    <glyph glyph-name="gdotaccent" unicode="&#x121;" 
d="M664 1023q24 -24 59 -24q34 0 58 24t24 58q0 35 -24 59t-58 24q-35 0 -59 -24t-24 -59q0 -34 24 -58zM424.5 238.5q25.5 22.5 69 35.5t94.5 13q169 0 252.5 61t83.5 192q0 90 -57 161l169 74q70 0 101.5 14t31.5 37q0 51 -58 51q-59 0 -121 -42l-152 -101q-47 39 -109 59
t-130 20q-89 0 -162.5 -29.5t-117 -90t-43.5 -148.5q0 -82 43 -130.5t129 -83.5q-29 -4 -63 -24.5t-58 -53t-24 -68.5q0 -45 23.5 -74.5t70.5 -52.5q-53 -26 -86 -79.5t-33 -125.5q0 -110 86 -156.5t221 -46.5q107 0 200.5 26t151 79t57.5 131q0 92 -40 140t-115 65.5
t-198 17.5h-93q-62 0 -94.5 10.5t-43.5 28t-11 42.5q0 26 25.5 48.5zM433.5 407.5q-61.5 46.5 -61.5 134.5q0 95 63 142t162 47q101 0 166 -47.5t65 -149.5q0 -95 -66 -134t-171 -39q-96 0 -157.5 46.5zM797 23.5q54 -13.5 77.5 -46.5t23.5 -95q0 -78 -94.5 -114t-220.5 -36
q-108 0 -158.5 31.5t-50.5 114.5q0 28 13.5 62.5t33.5 62t39 34.5h184q99 0 153 -13.5z" />
    <glyph glyph-name="Gcommaaccent" unicode="&#x122;" 
d="M588 -333.5q29 -22.5 77 -22.5q0 -41 -36.5 -79.5t-86.5 -74.5q-12 -9 -12 -21q0 -10 8.5 -18.5t19.5 -8.5q7 0 10 2q43 22 86 63.5t71 95t28 108.5q0 109 -102 109q-40 0 -66 -20t-26 -65q0 -46 29 -68.5zM1181.5 523q13.5 13 13.5 31q0 17 -13 29.5t-36 12.5h-284
q-23 0 -36 -12.5t-13 -29.5q0 -18 13.5 -31t36.5 -13h124v-178q-38 -119 -134.5 -191t-245.5 -72q-119 0 -215 63.5t-151.5 183.5t-55.5 284q0 147 49 260t144.5 177t229.5 64q89 0 164 -34.5t125.5 -96.5t65.5 -143q4 -22 17 -34.5t31 -12.5q19 0 32.5 12t13.5 35v293
q0 24 -14.5 37.5t-34.5 13.5t-34.5 -13.5t-14.5 -36.5v-106q-27 49 -80.5 88t-124.5 61.5t-149 22.5q-152 0 -269.5 -72.5t-182 -204t-64.5 -303.5q0 -188 65 -329.5t182 -218t270 -76.5q88 0 166 24.5t134 68t81 99.5v-124q0 -28 14.5 -43.5t34.5 -15.5q19 0 33 15t14 42
v461h61q24 0 37.5 13z" />
    <glyph glyph-name="gcommaaccent" unicode="&#x123;" 
d="M689.5 1162.5q-29.5 22.5 -76.5 22.5q0 41 36.5 79.5t86.5 74.5q12 9 12 21q0 10 -8.5 18.5t-19.5 8.5q-7 0 -10 -2q-43 -22 -86 -63.5t-71 -95t-28 -108.5q0 -109 102 -109q40 0 66 20t26 65q0 46 -29.5 68.5zM424.5 238.5q25.5 22.5 69 35.5t94.5 13q169 0 252.5 61
t83.5 192q0 90 -57 161l169 74q70 0 101.5 14t31.5 37q0 51 -58 51q-59 0 -121 -42l-152 -101q-47 39 -109 59t-130 20q-89 0 -162.5 -29.5t-117 -90t-43.5 -148.5q0 -82 43 -130.5t129 -83.5q-29 -4 -63 -24.5t-58 -53t-24 -68.5q0 -45 23.5 -74.5t70.5 -52.5
q-53 -26 -86 -79.5t-33 -125.5q0 -110 86 -156.5t221 -46.5q107 0 200.5 26t151 79t57.5 131q0 92 -40 140t-115 65.5t-198 17.5h-93q-62 0 -94.5 10.5t-43.5 28t-11 42.5q0 26 25.5 48.5zM433.5 407.5q-61.5 46.5 -61.5 134.5q0 95 63 142t162 47q101 0 166 -47.5
t65 -149.5q0 -95 -66 -134t-171 -39q-96 0 -157.5 46.5zM797 23.5q54 -13.5 77.5 -46.5t23.5 -95q0 -78 -94.5 -114t-220.5 -36q-108 0 -158.5 31.5t-50.5 114.5q0 28 13.5 62.5t33.5 62t39 34.5h184q99 0 153 -13.5z" />
    <glyph glyph-name="Hcircumflex" unicode="&#x124;" 
d="M404 1396q-7 -7 -7 -17q0 -12 11.5 -20.5t25.5 -8.5q17 0 23 9l162 209l163 -209q6 -9 23 -9q14 0 25.5 8.5t11.5 20.5q0 10 -7 17l-184 283q-4 6 -13 9t-19 3q-24 0 -31 -12zM495.5 13.5q13.5 13.5 13.5 32.5q0 16 -12.5 28t-35.5 12h-100v472h540v-472h-100
q-23 0 -35.5 -12.5t-12.5 -29.5q0 -18 13.5 -31t36.5 -13h294q23 0 36.5 13t13.5 30q0 18 -13 30.5t-37 12.5h-100v999h100q24 0 37 13.5t13 31.5q0 16 -13.5 28.5t-36.5 12.5h-294q-23 0 -36.5 -13t-13.5 -31q0 -17 12.5 -29.5t35.5 -12.5h100v-447h-540v447h100
q23 0 35.5 12.5t12.5 29.5q0 18 -13.5 31t-36.5 13h-302q-23 0 -36.5 -13t-13.5 -30q0 -18 13 -30.5t37 -12.5h108v-999h-124q-23 0 -35.5 -12.5t-12.5 -29.5q0 -18 13.5 -31t36.5 -13h316q23 0 36.5 13.5z" />
    <glyph glyph-name="hcircumflex" unicode="&#x125;" 
d="M420 1389q-7 -7 -7 -17q0 -12 11.5 -20.5t25.5 -8.5q17 0 23 9l162 209l163 -209q6 -9 23 -9q14 0 25.5 8.5t11.5 20.5q0 10 -7 17l-184 283q-4 6 -13 9t-19 3q-24 0 -31 -12zM896 82h-146q-20 0 -31 -11.5t-11 -27.5q0 -17 12 -30t34 -13h345q20 0 31 12.5t11 29.5
q0 16 -10.5 28t-29.5 12h-109v451q0 134 -70 207t-211 73q-67 0 -130.5 -23t-111.5 -62.5t-73 -88.5v502q0 39 -41 39q-4 0 -20 -2l-189 -19q-16 -1 -24.5 -14t-8.5 -27q0 -16 11 -26.5t28 -9.5l148 9v-1009h-108q-20 0 -31 -11.5t-11 -27.5q0 -17 12 -30t34 -13h303
q23 0 36.5 12.5t13.5 29.5q0 16 -12.5 28t-35.5 12h-105v415q0 53 41 108t114.5 90.5t164.5 35.5q89 0 134.5 -50t45.5 -141v-458z" />
    <glyph glyph-name="Hbar" unicode="&#x126;" 
d="M997 855v-769h100q24 0 37 -12.5t13 -30.5q0 -17 -13.5 -30t-36.5 -13h-294q-23 0 -36.5 13t-13.5 31q0 17 12.5 29.5t35.5 12.5h100v472h-540v-472h100q23 0 35.5 -12t12.5 -28q0 -19 -13.5 -32.5t-36.5 -13.5h-316q-23 0 -36.5 13t-13.5 31q0 17 12.5 29.5t35.5 12.5
h124v769h-112q-46 0 -46 39q0 37 42 37h116v154h-108q-24 0 -37 12.5t-13 30.5q0 17 13.5 30t36.5 13h302q23 0 36.5 -13t13.5 -31q0 -17 -12.5 -29.5t-35.5 -12.5h-100v-154h540v154h-100q-23 0 -35.5 12.5t-12.5 29.5q0 18 13.5 31t36.5 13h294q23 0 36.5 -12.5
t13.5 -28.5q0 -18 -13 -31.5t-37 -13.5h-100v-154h111q23 0 31 -10t8 -27q0 -39 -41 -39h-109zM901 638v217h-540v-217h540z" />
    <glyph glyph-name="hbar" unicode="&#x127;" 
d="M1130.5 70q10.5 -12 10.5 -28q0 -17 -11 -29.5t-31 -12.5h-345q-22 0 -34 13t-12 30q0 16 11 27.5t31 11.5h146v458q0 91 -45.5 141t-134.5 50q-91 0 -164.5 -35.5t-114.5 -90.5t-41 -108v-415h105q23 0 35.5 -12t12.5 -28q0 -17 -13.5 -29.5t-36.5 -12.5h-303
q-22 0 -34 13t-12 30q0 16 11 27.5t31 11.5h108v825h-120q-28 0 -39.5 8.5t-11.5 28.5t12 27.5t38 7.5h121v112l-148 -9q-17 -1 -28 9.5t-11 26.5q0 14 8.5 27t24.5 14l189 19q16 2 20 2q41 0 41 -39v-162h144q26 0 37.5 -7.5t11.5 -27.5t-11 -28.5t-36 -8.5h-146v-268
q25 49 73 88.5t111.5 62.5t130.5 23q141 0 211 -73t70 -207v-451h109q19 0 29.5 -12z" />
    <glyph glyph-name="Itilde" unicode="&#x128;" 
d="M414.5 1376.5q13.5 -8.5 27.5 -8.5q16 0 22 12q14 34 29 51t34 17q6 0 9 -1q26 -6 90 -40q40 -20 68 -33t56 -20q18 -4 27 -4q78 0 126 125q3 14 -14 26t-34 12q-13 0 -17 -8t-15.5 -30t-23.5 -34t-26 -12t-38.5 11t-64.5 32l-37 18.5t-52 23.5t-40 12q-12 2 -16 2
q-29 0 -58 -20.5t-47.5 -51.5t-18.5 -60q0 -11 13.5 -19.5zM1032 12.5q13 12.5 13 30.5q0 17 -13 30t-36 13h-286v999h286q23 0 36 12.5t13 29.5q0 18 -13.5 31t-36.5 13h-685q-24 0 -37.5 -13t-13.5 -31q0 -17 13.5 -29.5t36.5 -12.5h305v-999h-305q-23 0 -36.5 -13
t-13.5 -30q0 -18 13.5 -30.5t37.5 -12.5h685q24 0 37 12.5z" />
    <glyph glyph-name="itilde" unicode="&#x129;" 
d="M456.5 1002.5q13.5 -8.5 27.5 -8.5q16 0 22 12q14 34 29 51t34 17q6 0 9 -1q26 -6 90 -40q40 -20 68 -33t56 -20q18 -4 27 -4q78 0 126 125q3 14 -14 26t-34 12q-13 0 -17 -8t-15.5 -30t-23.5 -34t-26 -12t-38.5 11t-64.5 32l-37 18.5t-52 23.5t-40 12q-12 2 -16 2
q-29 0 -58 -20.5t-47.5 -51.5t-18.5 -60q0 -11 13.5 -19.5zM1125 12q11 12 11 29q0 16 -10.5 28.5t-29.5 12.5h-333v697q0 15 -10 23.5t-26 8.5q-8 0 -11 -1l-398 -55q-16 -2 -24 -13.5t-8 -26.5q0 -17 11 -29.5t30 -12.5l7 1l333 45v-637h-372q-20 0 -31 -11.5t-11 -27.5
q0 -17 12 -30t34 -13h796q19 0 30 12z" />
    <glyph glyph-name="Imacron" unicode="&#x12a;" 
d="M869.5 1425q-12.5 11 -36.5 11h-361q-50 0 -50 -43q0 -21 12 -32t39 -11h362q47 0 47 43q0 21 -12.5 32zM1032 12.5q13 12.5 13 30.5q0 17 -13 30t-36 13h-286v999h286q23 0 36 12.5t13 29.5q0 18 -13.5 31t-36.5 13h-685q-24 0 -37.5 -13t-13.5 -31q0 -17 13.5 -29.5
t36.5 -12.5h305v-999h-305q-23 0 -36.5 -13t-13.5 -30q0 -18 13.5 -30.5t37.5 -12.5h685q24 0 37 12.5z" />
    <glyph glyph-name="imacron" unicode="&#x12b;" 
d="M911.5 1051q-12.5 11 -36.5 11h-361q-50 0 -50 -43q0 -21 12 -32t39 -11h362q47 0 47 43q0 21 -12.5 32zM1125 12q11 12 11 29q0 16 -10.5 28.5t-29.5 12.5h-333v697q0 15 -10 23.5t-26 8.5q-8 0 -11 -1l-398 -55q-16 -2 -24 -13.5t-8 -26.5q0 -17 11 -29.5t30 -12.5l7 1
l333 45v-637h-372q-20 0 -31 -11.5t-11 -27.5q0 -17 12 -30t34 -13h796q19 0 30 12z" />
    <glyph glyph-name="Ibreve" unicode="&#x12c;" 
d="M499 1528q-12 0 -23 -7.5t-11 -16.5q0 -57 31.5 -91.5t74.5 -48.5t81 -14t81 14t74.5 48.5t31.5 91.5q0 9 -11 16.5t-23 7.5q-18 0 -23 -16q-8 -49 -45 -76.5t-85 -27.5t-85 27.5t-45 76.5q-5 16 -23 16zM1032 12.5q13 12.5 13 30.5q0 17 -13 30t-36 13h-286v999h286
q23 0 36 12.5t13 29.5q0 18 -13.5 31t-36.5 13h-685q-24 0 -37.5 -13t-13.5 -31q0 -17 13.5 -29.5t36.5 -12.5h305v-999h-305q-23 0 -36.5 -13t-13.5 -30q0 -18 13.5 -30.5t37.5 -12.5h685q24 0 37 12.5z" />
    <glyph glyph-name="ibreve" unicode="&#x12d;" 
d="M542 1154q-12 0 -23 -7.5t-11 -16.5q0 -57 31.5 -91.5t74.5 -48.5t81 -14t81 14t74.5 48.5t31.5 91.5q0 9 -11 16.5t-23 7.5q-18 0 -23 -16q-8 -49 -45 -76.5t-85 -27.5t-85 27.5t-45 76.5q-5 16 -23 16zM1125 12q11 12 11 29q0 16 -10.5 28.5t-29.5 12.5h-333v697
q0 15 -10 23.5t-26 8.5q-8 0 -11 -1l-398 -55q-16 -2 -24 -13.5t-8 -26.5q0 -17 11 -29.5t30 -12.5l7 1l333 45v-637h-372q-20 0 -31 -11.5t-11 -27.5q0 -17 12 -30t34 -13h796q19 0 30 12z" />
    <glyph glyph-name="Iogonek" unicode="&#x12e;" 
d="M1032 73q13 -13 13 -30q0 -18 -13 -30.5t-37 -12.5h-328q-47 -93 -79.5 -164t-32.5 -110q0 -30 17 -39t47 -9h23l23 1q26 0 26 -15q0 -17 -17.5 -35t-45.5 -30t-59 -12q-51 0 -81.5 26.5t-30.5 83.5q0 31 19 86t55.5 114t84.5 103h-306q-24 0 -37.5 12.5t-13.5 30.5
q0 17 13.5 30t36.5 13h305v999h-305q-23 0 -36.5 12.5t-13.5 29.5q0 18 13.5 31t37.5 13h685q23 0 36.5 -13t13.5 -31q0 -17 -13 -29.5t-36 -12.5h-286v-999h286q23 0 36 -13z" />
    <glyph glyph-name="iogonek" unicode="&#x12f;" 
d="M633 1030q-24 24 -24 58q0 35 24.5 59t58.5 24t58 -24t24 -59q0 -34 -23.5 -58t-58.5 -24t-59 24zM1121.5 69.5q10.5 -12.5 10.5 -28.5q0 -17 -11 -29t-30 -12h-386q-47 -93 -79.5 -164t-32.5 -110q0 -30 17 -39t47 -9h23l23 1q26 0 26 -15q0 -17 -17.5 -35t-45.5 -30
t-59 -12q-51 0 -81.5 26.5t-30.5 83.5q0 31 19 86t55.5 114t84.5 103h-359q-22 0 -34 13t-12 30q0 16 11 27.5t31 11.5h372v637l-333 -45l-7 -1q-19 0 -30 12.5t-11 29.5q0 15 8 26.5t24 13.5l398 55q3 1 11 1q16 0 26 -8.5t10 -23.5v-697h333q19 0 29.5 -12.5z" />
    <glyph glyph-name="Idotaccent" unicode="&#x130;" 
d="M593 1333q24 -24 59 -24q34 0 58 24t24 58q0 35 -24 59t-58 24q-35 0 -59 -24t-24 -59q0 -34 24 -58zM1032 12.5q13 12.5 13 30.5q0 17 -13 30t-36 13h-286v999h286q23 0 36 12.5t13 29.5q0 18 -13.5 31t-36.5 13h-685q-24 0 -37.5 -13t-13.5 -31q0 -17 13.5 -29.5
t36.5 -12.5h305v-999h-305q-23 0 -36.5 -13t-13.5 -30q0 -18 13.5 -30.5t37.5 -12.5h685q24 0 37 12.5z" />
    <glyph glyph-name="dotlessi" unicode="&#x131;" 
d="M1125 12q11 12 11 29q0 16 -10.5 28.5t-29.5 12.5h-333v697q0 15 -10 23.5t-26 8.5q-8 0 -11 -1l-398 -55q-16 -2 -24 -13.5t-8 -26.5q0 -17 11 -29.5t30 -12.5l7 1l333 45v-637h-372q-20 0 -31 -11.5t-11 -27.5q0 -17 12 -30t34 -13h796q19 0 30 12z" />
    <glyph glyph-name="IJ" unicode="&#x132;" 
d="M1143 1085q23 0 36 13t13 30q0 18 -13 30.5t-37 12.5h-1044q-23 0 -37 -13t-14 -31q0 -17 13.5 -29.5t36.5 -12.5h155v-999h-135q-23 0 -36.5 -13t-13.5 -30q0 -18 13.5 -30.5t37.5 -12.5h360q24 0 37 12.5t13 30.5q0 17 -13 30t-36 13h-131v999h596v-781
q0 -97 -17 -141.5t-72.5 -63t-178.5 -18.5q-15 0 -23.5 -12t-8.5 -28q0 -17 8.5 -29t23.5 -12q145 0 223 28t109.5 93.5t31.5 185.5v778h103z" />
    <glyph glyph-name="ij" unicode="&#x133;" 
d="M478 1030q24 -24 59 -24t58.5 24t23.5 58q0 35 -24 59t-58 24t-58.5 -24t-24.5 -59q0 -34 24 -58zM896 1030q24 -24 59 -24t58.5 24t23.5 58q0 35 -24 59t-58 24t-58.5 -24t-24.5 -59q0 -34 24 -58zM1042 784q0 15 -10 22t-26 7h-708q-15 0 -23.5 -11.5t-8.5 -27.5
q0 -17 11 -30t30 -13h180v-649h-306q-20 0 -31 -11.5t-11 -27.5q0 -17 12 -30t34 -13h515q19 0 30 12t11 29q0 16 -10.5 28.5t-29.5 12.5h-118v649h363v-732q0 -74 -52 -123.5t-135 -73t-176 -23.5q-27 0 -42.5 -13.5t-15.5 -31.5t14 -31t37 -13q124 0 231 36t171 104
t64 159v795z" />
    <glyph glyph-name="Jcircumflex" unicode="&#x134;" 
d="M391 1396q-7 -7 -7 -17q0 -12 11.5 -20.5t25.5 -8.5q17 0 23 9l162 209l163 -209q6 -9 23 -9q14 0 25.5 8.5t11.5 20.5q0 10 -7 17l-184 283q-4 6 -13 9t-19 3q-24 0 -31 -12zM1026 1085q23 0 36 13t13 30q0 18 -13 30.5t-37 12.5h-615q-23 0 -36 -13t-13 -31
q0 -17 12.5 -29.5t35.5 -12.5h350v-771q0 -85 -43.5 -140t-111.5 -80.5t-144 -25.5q-59 0 -111 14.5t-83.5 40.5t-31.5 59v101q0 21 -14 33t-33 12t-34 -12t-15 -33v-112q0 -55 43.5 -97t115 -64.5t154.5 -22.5q103 0 195 35.5t150.5 110t58.5 184.5v768h171z" />
    <glyph glyph-name="jcircumflex" unicode="&#x135;" 
d="M382 1022q-7 -7 -7 -17q0 -12 11.5 -20.5t25.5 -8.5q17 0 23 9l162 209l163 -209q6 -9 23 -9q14 0 25.5 8.5t11.5 20.5q0 10 -7 17l-184 283q-4 6 -13 9t-19 3q-24 0 -31 -12zM895 784q0 15 -10 22t-26 7h-520q-19 0 -29.5 -11.5t-10.5 -27.5q0 -17 11.5 -30t32.5 -13
h456v-732q0 -73 -66.5 -122.5t-165 -73.5t-193.5 -24q-27 0 -42.5 -13.5t-15.5 -31.5t14 -31t37 -13q126 0 248.5 36.5t201 105t78.5 157.5v795z" />
    <glyph glyph-name="Kcommaaccent" unicode="&#x136;" 
d="M616 -316.5q29 -22.5 77 -22.5q0 -41 -36.5 -79.5t-86.5 -74.5q-12 -9 -12 -21q0 -10 8.5 -18.5t19.5 -8.5q7 0 10 2q43 22 86 63.5t71 95t28 108.5q0 109 -102 109q-40 0 -66 -20t-26 -65q0 -46 29 -68.5zM622 12.5q13 12.5 13 30.5q0 17 -13 30t-36 13h-244v379
l185 156l478 -535h-166q-23 0 -36 -13t-13 -30q0 -18 13 -30.5t37 -12.5h418q23 0 36 12.5t13 30.5q0 17 -12.5 30t-35.5 13h-137l-521 590l438 408h138q23 0 35.5 12.5t12.5 30.5t-13 31t-36 13h-362q-23 0 -36.5 -12t-13.5 -28q0 -15 13 -26t36 -11h89q19 0 19 -6
q0 -3 -7 -10l-576 -520v526h193q23 0 35.5 12.5t12.5 29.5q0 18 -13.5 31.5t-36.5 13.5h-445q-24 0 -37.5 -13t-13.5 -31t13 -30.5t37 -12.5h159v-998h-159q-23 0 -36.5 -13t-13.5 -30q0 -18 13.5 -30.5t37.5 -12.5h501q24 0 37 12.5z" />
    <glyph glyph-name="kcommaaccent" unicode="&#x137;" 
d="M585 -316.5q29 -22.5 77 -22.5q0 -41 -36.5 -79.5t-86.5 -74.5q-12 -9 -12 -21q0 -10 8.5 -18.5t19.5 -8.5q7 0 10 2q43 22 86 63.5t71 95t28 108.5q0 109 -102 109q-40 0 -66 -20t-26 -65q0 -46 29 -68.5zM454 1173.5q-10 8.5 -26 8.5l-12 -1l-234 -42q-16 -2 -24 -13.5
t-8 -26.5q0 -17 11 -29.5t30 -12.5q4 0 7 1l170 24v-1000h-172q-20 0 -31 -12t-11 -28q0 -17 12.5 -29.5t33.5 -12.5h334q19 0 29.5 12t10.5 29q0 16 -10.5 28.5t-28.5 12.5h-71v226l126 92l299 -318h-110q-22 0 -34 -12t-12 -29q0 -16 11 -28.5t31 -12.5h313q19 0 29.5 12
t10.5 29q0 16 -10.5 28.5t-29.5 12.5h-87l-341 364l317 246h89q16 0 28 11.5t12 25.5q0 20 -10.5 33t-30.5 13h-317q-22 0 -34 -12.5t-12 -29.5t11 -29t31 -12h103l-383 -293v751q0 15 -10 23.5z" />
    <glyph glyph-name="kgreenlandic" unicode="&#x138;" 
d="M454 764q-10 10 -26 10h-239q-19 0 -29 -12t-10 -28q0 -18 10 -30t33 -12h175v-610h-172q-20 0 -31 -12t-11 -28q0 -17 12.5 -29.5t33.5 -12.5h334q19 0 29.5 12t10.5 29q0 16 -10.5 28.5t-28.5 12.5h-71v205l133 100l292 -305h-110q-22 0 -34 -12t-12 -29
q0 -16 11 -28.5t31 -12.5h313q19 0 29.5 12t10.5 29q0 16 -10.5 28.5t-29.5 12.5h-87l-339 351l309 259h95q16 0 28 11.5t12 25.5q0 20 -10.5 33t-30.5 13h-317q-22 0 -34 -12.5t-12 -29.5t11 -29t31 -12h107l-387 -319v363q0 18 -10 28z" />
    <glyph glyph-name="Lacute" unicode="&#x139;" 
d="M763.5 1657q-19.5 20 -42.5 20q-17 0 -31 -14l-271 -276q-7 -7 -7 -15q0 -9 7.5 -15.5t16.5 -6.5q7 0 11 4l322 234q14 10 14 28q0 21 -19.5 41zM130.5 1158q-13.5 -13 -13.5 -31q0 -17 13 -29.5t36 -12.5h227v-999h-269q-23 0 -36.5 -13t-13.5 -30q0 -18 13.5 -30.5
t37.5 -12.5h895q31 0 49.5 18.5t22.5 47.5l30 321v6q0 23 -15 36t-36 13q-19 0 -33 -11t-17 -32l-34 -276q-2 -21 -12 -28t-29 -9h-457v999h152q23 0 36.5 12.5t13.5 29.5q0 18 -13.5 31t-37.5 13h-473q-23 0 -36.5 -13z" />
    <glyph glyph-name="lacute" unicode="&#x13a;" 
d="M836.5 1652q-19.5 20 -42.5 20q-17 0 -31 -14l-271 -276q-7 -7 -7 -15q0 -9 7.5 -15.5t16.5 -6.5q7 0 11 4l322 234q14 10 14 28q0 21 -19.5 41zM672 1181l-418 -38q-16 -2 -24 -13.5t-8 -26.5q0 -17 11 -29.5t30 -12.5l7 1l353 28v-1008h-369q-20 0 -31 -12t-11 -28
q0 -17 12 -29.5t34 -12.5h800q19 0 29.5 12t10.5 29q0 16 -10.5 28.5t-28.5 12.5h-340v1068q0 15 -10 23.5t-26 8.5z" />
    <glyph glyph-name="Lcommaaccent" unicode="&#x13b;" 
d="M544 -316.5q29 -22.5 77 -22.5q0 -41 -36.5 -79.5t-86.5 -74.5q-12 -9 -12 -21q0 -10 8.5 -18.5t19.5 -8.5q7 0 10 2q43 22 86 63.5t71 95t28 108.5q0 109 -102 109q-40 0 -66 -20t-26 -65q0 -46 29 -68.5zM130.5 1158q-13.5 -13 -13.5 -31q0 -17 13 -29.5t36 -12.5h227
v-999h-269q-23 0 -36.5 -13t-13.5 -30q0 -18 13.5 -30.5t37.5 -12.5h895q31 0 49.5 18.5t22.5 47.5l30 321v6q0 23 -15 36t-36 13q-19 0 -33 -11t-17 -32l-34 -276q-2 -21 -12 -28t-29 -9h-457v999h152q23 0 36.5 12.5t13.5 29.5q0 18 -13.5 31t-37.5 13h-473
q-23 0 -36.5 -13z" />
    <glyph glyph-name="lcommaaccent" unicode="&#x13c;" 
d="M617 -316.5q29 -22.5 77 -22.5q0 -41 -36.5 -79.5t-86.5 -74.5q-12 -9 -12 -21q0 -10 8.5 -18.5t19.5 -8.5q7 0 10 2q43 22 86 63.5t71 95t28 108.5q0 109 -102 109q-40 0 -66 -20t-26 -65q0 -46 29 -68.5zM672 1181l-418 -38q-16 -2 -24 -13.5t-8 -26.5q0 -17 11 -29.5
t30 -12.5l7 1l353 28v-1008h-369q-20 0 -31 -12t-11 -28q0 -17 12 -29.5t34 -12.5h800q19 0 29.5 12t10.5 29q0 16 -10.5 28.5t-28.5 12.5h-340v1068q0 15 -10 23.5t-26 8.5z" />
    <glyph glyph-name="Lcaron" unicode="&#x13d;" 
d="M1409.5 1022.5q30.5 -23.5 77.5 -23.5q0 -41 -33.5 -82.5t-75.5 -71.5q-12 -9 -12 -21q0 -10 8.5 -18.5t19.5 -8.5q7 0 10 2q43 22 86 63.5t71 95t28 108.5q0 57 -32 89t-80 32q-39 0 -68.5 -25t-29.5 -70q0 -46 30.5 -69.5zM130.5 1158q-13.5 -13 -13.5 -31
q0 -17 13 -29.5t36 -12.5h227v-999h-269q-23 0 -36.5 -13t-13.5 -30q0 -18 13.5 -30.5t37.5 -12.5h895q31 0 49.5 18.5t22.5 47.5l30 321v6q0 23 -15 36t-36 13q-19 0 -33 -11t-17 -32l-34 -276q-2 -21 -12 -28t-29 -9h-457v999h152q23 0 36.5 12.5t13.5 29.5q0 18 -13.5 31
t-37.5 13h-473q-23 0 -36.5 -13z" />
    <glyph glyph-name="lcaron" unicode="&#x13e;" 
d="M1401.5 1017.5q30.5 -23.5 77.5 -23.5q0 -41 -33.5 -82.5t-75.5 -71.5q-12 -9 -12 -21q0 -10 8.5 -18.5t19.5 -8.5q7 0 10 2q43 22 86 63.5t71 95t28 108.5q0 57 -32 89t-80 32q-39 0 -68.5 -25t-29.5 -70q0 -46 30.5 -69.5zM672 1181l-418 -38q-16 -2 -24 -13.5
t-8 -26.5q0 -17 11 -29.5t30 -12.5l7 1l353 28v-1008h-369q-20 0 -31 -12t-11 -28q0 -17 12 -29.5t34 -12.5h800q19 0 29.5 12t10.5 29q0 16 -10.5 28.5t-28.5 12.5h-340v1068q0 15 -10 23.5t-26 8.5z" />
    <glyph glyph-name="Ldot" unicode="&#x13f;" 
d="M762 635q24 -24 59 -24t58.5 24t23.5 58q0 35 -24 59t-58 24t-58.5 -24t-24.5 -59q0 -34 24 -58zM130.5 1158q-13.5 -13 -13.5 -31q0 -17 13 -29.5t36 -12.5h227v-999h-269q-23 0 -36.5 -13t-13.5 -30q0 -18 13.5 -30.5t37.5 -12.5h895q31 0 49.5 18.5t22.5 47.5l30 321
v6q0 23 -15 36t-36 13q-19 0 -33 -11t-17 -32l-34 -276q-2 -21 -12 -28t-29 -9h-457v999h152q23 0 36.5 12.5t13.5 29.5q0 18 -13.5 31t-37.5 13h-473q-23 0 -36.5 -13z" />
    <glyph glyph-name="ldot" unicode="&#x140;" 
d="M914 635q24 -24 59 -24t58.5 24t23.5 58q0 35 -24 59t-58 24t-58.5 -24t-24.5 -59q0 -34 24 -58zM630 1181l-418 -38q-16 -2 -24 -13.5t-8 -26.5q0 -17 11 -29.5t30 -12.5l7 1l353 28v-1008h-369q-20 0 -31 -12t-11 -28q0 -17 12 -29.5t34 -12.5h800q19 0 29.5 12
t10.5 29q0 16 -10.5 28.5t-28.5 12.5h-340v1068q0 15 -10 23.5t-26 8.5z" />
    <glyph glyph-name="Lslash" unicode="&#x141;" 
d="M1107 429q15 -13 15 -36v-6l-30 -321q-4 -29 -22.5 -47.5t-49.5 -18.5h-895q-24 0 -37.5 12.5t-13.5 30.5q0 17 13.5 30t36.5 13h269v502l-148 -37q-12 -3 -22 -3q-19 0 -29.5 12.5t-10.5 33.5q0 30 40 40l170 42v409h-227q-23 0 -36 12.5t-13 29.5q0 18 13.5 31t36.5 13
h473q24 0 37.5 -13t13.5 -31q0 -17 -13.5 -29.5t-36.5 -12.5h-152v-386l269 66q11 3 19 3q19 0 30 -12.5t11 -33.5q0 -14 -9 -23t-29 -14l-291 -73v-526h457q19 2 29 9t12 28l34 276q3 21 17 32t33 11q21 0 36 -13z" />
    <glyph glyph-name="lslash" unicode="&#x142;" 
d="M1087.5 69.5q10.5 -12.5 10.5 -28.5q0 -17 -10.5 -29t-29.5 -12h-800q-22 0 -34 12.5t-12 29.5q0 16 11 28t31 12h369v518l-188 -77q-12 -4 -17 -4q-17 0 -29.5 13.5t-12.5 29.5q0 23 24 33l223 90v405l-353 -28l-7 -1q-19 0 -30 12.5t-11 29.5q0 15 8 26.5t24 13.5
l418 38l11 1q16 0 26 -8.5t10 -23.5v-426l177 72q9 3 16 3q16 0 26.5 -13t10.5 -29q0 -23 -20 -32l-210 -86v-557h340q18 0 28.5 -12.5z" />
    <glyph glyph-name="Nacute" unicode="&#x143;" 
d="M797.5 1657q-19.5 20 -42.5 20q-17 0 -31 -14l-271 -276q-7 -7 -7 -15q0 -9 7.5 -15.5t16.5 -6.5q7 0 11 4l322 234q14 10 14 28q0 21 -19.5 41zM285 86h-126q-23 0 -36 -13t-13 -30q0 -18 13 -30.5t37 -12.5h358q24 0 37 12.5t13 30.5q0 17 -13 30t-36 13h-138v998
l553 -1062q9 -18 24.5 -28t31.5 -10q21 0 35 16t14 47v1038h96q23 0 35.5 12.5t12.5 29.5q0 18 -13.5 31t-36.5 13h-337q-24 0 -37.5 -13t-13.5 -31q0 -17 13 -29.5t36 -12.5h149v-891l-486 953q-6 13 -15 18.5t-25 5.5h-287q-23 0 -36.5 -13t-13.5 -31q0 -17 13 -29.5
t36 -12.5h156v-999z" />
    <glyph glyph-name="nacute" unicode="&#x144;" 
d="M800.5 1283q-19.5 20 -42.5 20q-17 0 -31 -14l-271 -276q-7 -7 -7 -15q0 -9 7.5 -15.5t16.5 -6.5q7 0 11 4l322 234q14 10 14 28q0 21 -19.5 41zM894 82h-146q-20 0 -31 -11.5t-11 -27.5q0 -17 12 -30t34 -13h345q20 0 31 12.5t11 29.5q0 16 -10.5 28t-29.5 12h-109v451
q0 134 -70 207t-211 73q-68 0 -132 -23t-113 -62.5t-74 -88.5l-5 120q-2 39 -39 39q-4 0 -18 -2l-164 -33q-17 -4 -25 -15.5t-8 -25.5q0 -16 11 -27t28 -11q10 0 20 3l108 22v-627h-108q-20 0 -31 -11.5t-11 -27.5q0 -17 12 -30t34 -13h303q23 0 36.5 12.5t13.5 29.5
q0 16 -12.5 28t-35.5 12h-105v421q0 52 41 105t114.5 88t164.5 35q89 0 134.5 -50t45.5 -141v-458z" />
    <glyph glyph-name="Ncommaaccent" unicode="&#x145;" 
d="M578 -332.5q29 -22.5 77 -22.5q0 -41 -36.5 -79.5t-86.5 -74.5q-12 -9 -12 -21q0 -10 8.5 -18.5t19.5 -8.5q7 0 10 2q43 22 86 63.5t71 95t28 108.5q0 109 -102 109q-40 0 -66 -20t-26 -65q0 -46 29 -68.5zM285 86h-126q-23 0 -36 -13t-13 -30q0 -18 13 -30.5t37 -12.5
h358q24 0 37 12.5t13 30.5q0 17 -13 30t-36 13h-138v998l553 -1062q9 -18 24.5 -28t31.5 -10q21 0 35 16t14 47v1038h96q23 0 35.5 12.5t12.5 29.5q0 18 -13.5 31t-36.5 13h-337q-24 0 -37.5 -13t-13.5 -31q0 -17 13 -29.5t36 -12.5h149v-891l-486 953q-6 13 -15 18.5
t-25 5.5h-287q-23 0 -36.5 -13t-13.5 -31q0 -17 13 -29.5t36 -12.5h156v-999z" />
    <glyph glyph-name="ncommaaccent" unicode="&#x146;" 
d="M581 -316.5q29 -22.5 77 -22.5q0 -41 -36.5 -79.5t-86.5 -74.5q-12 -9 -12 -21q0 -10 8.5 -18.5t19.5 -8.5q7 0 10 2q43 22 86 63.5t71 95t28 108.5q0 109 -102 109q-40 0 -66 -20t-26 -65q0 -46 29 -68.5zM894 82h-146q-20 0 -31 -11.5t-11 -27.5q0 -17 12 -30t34 -13
h345q20 0 31 12.5t11 29.5q0 16 -10.5 28t-29.5 12h-109v451q0 134 -70 207t-211 73q-68 0 -132 -23t-113 -62.5t-74 -88.5l-5 120q-2 39 -39 39q-4 0 -18 -2l-164 -33q-17 -4 -25 -15.5t-8 -25.5q0 -16 11 -27t28 -11q10 0 20 3l108 22v-627h-108q-20 0 -31 -11.5
t-11 -27.5q0 -17 12 -30t34 -13h303q23 0 36.5 12.5t13.5 29.5q0 16 -12.5 28t-35.5 12h-105v421q0 52 41 105t114.5 88t164.5 35q89 0 134.5 -50t45.5 -141v-458z" />
    <glyph glyph-name="Ncaron" unicode="&#x147;" 
d="M847 1644q7 7 7 17q0 12 -11.5 21t-25.5 9q-17 0 -23 -9l-163 -209l-162 209q-6 9 -23 9q-14 0 -25.5 -9t-11.5 -21q0 -10 7 -17l184 -283q7 -11 31 -11q25 0 32 11zM285 86h-126q-23 0 -36 -13t-13 -30q0 -18 13 -30.5t37 -12.5h358q24 0 37 12.5t13 30.5q0 17 -13 30
t-36 13h-138v998l553 -1062q9 -18 24.5 -28t31.5 -10q21 0 35 16t14 47v1038h96q23 0 35.5 12.5t12.5 29.5q0 18 -13.5 31t-36.5 13h-337q-24 0 -37.5 -13t-13.5 -31q0 -17 13 -29.5t36 -12.5h149v-891l-486 953q-6 13 -15 18.5t-25 5.5h-287q-23 0 -36.5 -13t-13.5 -31
q0 -17 13 -29.5t36 -12.5h156v-999z" />
    <glyph glyph-name="ncaron" unicode="&#x148;" 
d="M851 1270q7 7 7 17q0 12 -11.5 21t-25.5 9q-17 0 -23 -9l-163 -209l-162 209q-6 9 -23 9q-14 0 -25.5 -9t-11.5 -21q0 -10 7 -17l184 -283q7 -11 31 -11q25 0 32 11zM894 82h-146q-20 0 -31 -11.5t-11 -27.5q0 -17 12 -30t34 -13h345q20 0 31 12.5t11 29.5q0 16 -10.5 28
t-29.5 12h-109v451q0 134 -70 207t-211 73q-68 0 -132 -23t-113 -62.5t-74 -88.5l-5 120q-2 39 -39 39q-4 0 -18 -2l-164 -33q-17 -4 -25 -15.5t-8 -25.5q0 -16 11 -27t28 -11q10 0 20 3l108 22v-627h-108q-20 0 -31 -11.5t-11 -27.5q0 -17 12 -30t34 -13h303
q23 0 36.5 12.5t13.5 29.5q0 16 -12.5 28t-35.5 12h-105v421q0 52 41 105t114.5 88t164.5 35q89 0 134.5 -50t45.5 -141v-458z" />
    <glyph glyph-name="napostrophe" unicode="&#x149;" 
d="M312.5 1139.5q30.5 -23.5 77.5 -23.5q0 -41 -33.5 -82.5t-75.5 -71.5q-12 -9 -12 -21q0 -10 8.5 -18.5t19.5 -8.5q7 0 10 2q43 22 86 63.5t71 95t28 108.5q0 57 -32 89t-80 32q-39 0 -68.5 -25t-29.5 -70q0 -46 30.5 -69.5zM894 82h-146q-20 0 -31 -11.5t-11 -27.5
q0 -17 12 -30t34 -13h345q20 0 31 12.5t11 29.5q0 16 -10.5 28t-29.5 12h-109v451q0 134 -70 207t-211 73q-68 0 -132 -23t-113 -62.5t-74 -88.5l-5 120q-2 39 -39 39q-4 0 -18 -2l-164 -33q-17 -4 -25 -15.5t-8 -25.5q0 -16 11 -27t28 -11q10 0 20 3l108 22v-627h-108
q-20 0 -31 -11.5t-11 -27.5q0 -17 12 -30t34 -13h303q23 0 36.5 12.5t13.5 29.5q0 16 -12.5 28t-35.5 12h-105v421q0 52 41 105t114.5 88t164.5 35q89 0 134.5 -50t45.5 -141v-458z" />
    <glyph glyph-name="Eng" unicode="&#x14a;" 
d="M1039 1085h96q23 0 35.5 12.5t12.5 29.5q0 18 -13.5 31t-36.5 13h-337q-24 0 -37.5 -13t-13.5 -31q0 -17 13 -29.5t36 -12.5h149v-861l-496 923q-6 13 -15 18.5t-25 5.5h-277q-23 0 -36.5 -13t-13.5 -31q0 -17 13 -29.5t36 -12.5h156v-999h-126q-23 0 -36 -13t-13 -30
q0 -18 13 -30.5t37 -12.5h358q24 0 37 12.5t13 30.5q0 17 -13 30t-36 13h-138v998q88 -170 466 -857l96 -175v-84q0 -86 -45.5 -151.5t-117.5 -101t-150 -35.5q-20 0 -30.5 -11.5t-10.5 -27.5q0 -17 11 -29.5t29 -12.5q107 0 201.5 47.5t151.5 134.5t57 200v1104z" />
    <glyph glyph-name="eng" unicode="&#x14b;" 
d="M1012 533q0 134 -70 207t-211 73q-68 0 -132 -23t-113 -62.5t-74 -88.5l-5 120q-2 39 -39 39q-4 0 -18 -2l-164 -33q-17 -4 -25 -15.5t-8 -25.5q0 -16 11 -27t28 -11q9 0 20 3l108 22v-627h-108q-20 0 -31 -11.5t-11 -27.5q0 -17 12 -30t34 -13h303q23 0 36.5 12.5
t13.5 29.5q0 16 -12.5 28t-35.5 12h-105v421q0 52 41 105t114.5 88t164.5 35q89 0 134.5 -50t45.5 -141v-539q0 -73 -66.5 -122.5t-165 -73.5t-193.5 -24q-27 0 -42.5 -13.5t-15.5 -31.5t14 -31t37 -13q126 0 248.5 36.5t201 105t78.5 157.5v542z" />
    <glyph glyph-name="Omacron" unicode="&#x14c;" 
d="M837.5 1425q-12.5 11 -36.5 11h-361q-50 0 -50 -43q0 -21 12 -32t39 -11h362q47 0 47 43q0 21 -12.5 32zM1073.5 876.5q-58.5 138.5 -174.5 224.5t-279 86t-279 -86t-174.5 -224.5t-58.5 -294.5t58.5 -293t174.5 -221.5t279 -84.5t279 84.5t174.5 221.5t58.5 293
t-58.5 294.5zM989 331.5q-47 -117.5 -141 -190t-228 -72.5t-228 72.5t-141 190t-47 250.5q0 135 48 253.5t142 192t226 73.5t226 -73.5t142 -192t48 -253.5q0 -133 -47 -250.5z" />
    <glyph glyph-name="omacron" unicode="&#x14d;" 
d="M837.5 1051q-12.5 11 -36.5 11h-361q-50 0 -50 -43q0 -21 12 -32t39 -11h362q47 0 47 43q0 21 -12.5 32zM249 179q53 -94 149 -145t222 -51t222 51t149 145t53 219q0 126 -53 220t-149 144.5t-222 50.5t-222 -50.5t-149 -144.5t-53 -220q0 -125 53 -219zM341.5 570.5
q37.5 75.5 109 118t169.5 42.5t169.5 -42.5t109 -118t37.5 -172.5q0 -98 -37.5 -173.5t-109 -117.5t-169.5 -42t-169.5 42t-109 117.5t-37.5 173.5q0 97 37.5 172.5z" />
    <glyph glyph-name="Obreve" unicode="&#x14e;" 
d="M467 1528q-12 0 -23 -7.5t-11 -16.5q0 -57 31.5 -91.5t74.5 -48.5t81 -14t81 14t74.5 48.5t31.5 91.5q0 9 -11 16.5t-23 7.5q-18 0 -23 -16q-8 -49 -45 -76.5t-85 -27.5t-85 27.5t-45 76.5q-5 16 -23 16zM1073.5 876.5q-58.5 138.5 -174.5 224.5t-279 86t-279 -86
t-174.5 -224.5t-58.5 -294.5t58.5 -293t174.5 -221.5t279 -84.5t279 84.5t174.5 221.5t58.5 293t-58.5 294.5zM989 331.5q-47 -117.5 -141 -190t-228 -72.5t-228 72.5t-141 190t-47 250.5q0 135 48 253.5t142 192t226 73.5t226 -73.5t142 -192t48 -253.5q0 -133 -47 -250.5z
" />
    <glyph glyph-name="obreve" unicode="&#x14f;" 
d="M467 1154q-12 0 -23 -7.5t-11 -16.5q0 -57 31.5 -91.5t74.5 -48.5t81 -14t81 14t74.5 48.5t31.5 91.5q0 9 -11 16.5t-23 7.5q-18 0 -23 -16q-8 -49 -45 -76.5t-85 -27.5t-85 27.5t-45 76.5q-5 16 -23 16zM249 179q53 -94 149 -145t222 -51t222 51t149 145t53 219
q0 126 -53 220t-149 144.5t-222 50.5t-222 -50.5t-149 -144.5t-53 -220q0 -125 53 -219zM341.5 570.5q37.5 75.5 109 118t169.5 42.5t169.5 -42.5t109 -118t37.5 -172.5q0 -98 -37.5 -173.5t-109 -117.5t-169.5 -42t-169.5 42t-109 117.5t-37.5 173.5q0 97 37.5 172.5z" />
    <glyph glyph-name="Ohungarumlaut" unicode="&#x150;" 
d="M611 1677.5q-19 19.5 -42 19.5q-18 0 -32 -14l-231 -296q-6 -6 -6 -15t7 -15.5t16 -6.5q7 0 11 4l282 254q14 10 14 28q0 22 -19 41.5zM921 1657.5q-19 19.5 -42 19.5q-18 0 -32 -14l-271 -276q-6 -6 -6 -15t7 -15.5t16 -6.5q7 0 11 4l322 234q14 10 14 28q0 22 -19 41.5
zM1073.5 876.5q-58.5 138.5 -174.5 224.5t-279 86t-279 -86t-174.5 -224.5t-58.5 -294.5t58.5 -293t174.5 -221.5t279 -84.5t279 84.5t174.5 221.5t58.5 293t-58.5 294.5zM989 331.5q-47 -117.5 -141 -190t-228 -72.5t-228 72.5t-141 190t-47 250.5q0 135 48 253.5t142 192
t226 73.5t226 -73.5t142 -192t48 -253.5q0 -133 -47 -250.5z" />
    <glyph glyph-name="ohungarumlaut" unicode="&#x151;" 
d="M611 1303.5q-19 19.5 -42 19.5q-18 0 -32 -14l-231 -296q-6 -6 -6 -15t7 -15.5t16 -6.5q7 0 11 4l282 254q14 10 14 28q0 22 -19 41.5zM921 1283.5q-19 19.5 -42 19.5q-18 0 -32 -14l-271 -276q-6 -6 -6 -15t7 -15.5t16 -6.5q7 0 11 4l322 234q14 10 14 28q0 22 -19 41.5
zM249 179q53 -94 149 -145t222 -51t222 51t149 145t53 219q0 126 -53 220t-149 144.5t-222 50.5t-222 -50.5t-149 -144.5t-53 -220q0 -125 53 -219zM341.5 570.5q37.5 75.5 109 118t169.5 42.5t169.5 -42.5t109 -118t37.5 -172.5q0 -98 -37.5 -173.5t-109 -117.5t-169.5 -42
t-169.5 42t-109 117.5t-37.5 173.5q0 97 37.5 172.5z" />
    <glyph glyph-name="OE" unicode="&#x152;" 
d="M913 818.5q-11 13.5 -27 13.5q-15 0 -26.5 -12t-13.5 -33l-13 -133h-156v430h329l14 -243q1 -18 13.5 -28t28.5 -10t28 11.5t12 32.5v270q0 25 -15.5 39.5t-40.5 14.5l-480 1q-115 0 -218 -69.5t-166.5 -203.5t-63.5 -317t63 -315t165 -199.5t217 -67.5h495q25 0 40.5 14
t15.5 39v270q0 25 -12.5 38.5t-29.5 13.5t-30 -11t-14 -28l-16 -251h-335v492h156l13 -148q1 -20 13 -31.5t27 -11.5q16 0 27 13t11 38v342q0 26 -11 39.5zM579 1084v-1002h-18q-89 0 -169 59.5t-129 173t-49 267.5q0 158 49.5 272t130 172t170.5 58h15z" />
    <glyph glyph-name="oe" unicode="&#x153;" 
d="M731 757q-69 -55 -102 -170q-29 114 -96 167t-150 53q-74 0 -139 -47t-105 -139.5t-40 -222.5t39.5 -222.5t103 -139t136.5 -46.5q81 0 149.5 52.5t103.5 162.5q33 -114 99 -164.5t156 -50.5q131 0 235 115q15 18 15 32q0 15 -13.5 25t-28.5 10q-14 0 -23 -10
q-41 -50 -87.5 -75.5t-93.5 -25.5q-56 0 -104 37.5t-78 111t-33 177.5l376 5q35 0 56 24.5t21 62.5q0 108 -34.5 183t-91 112.5t-120.5 37.5q-82 0 -151 -55zM958 700q38 -32 61.5 -93.5t23.5 -146.5l-365 -4q16 88 47 150t70.5 94t81.5 32q43 0 81 -32zM302.5 109.5
q-42.5 37.5 -69 111t-26.5 177.5t26.5 177.5t69 110.5t90.5 37t90.5 -37t69 -110.5t26.5 -177.5t-26.5 -177.5t-69 -111t-90.5 -37.5t-90.5 37.5z" />
    <glyph glyph-name="Racute" unicode="&#x154;" 
d="M841.5 1657q-19.5 20 -42.5 20q-17 0 -31 -14l-271 -276q-7 -7 -7 -15q0 -9 7.5 -15.5t16.5 -6.5q7 0 11 4l322 234q14 10 14 28q0 21 -19.5 41zM429 82v460h175q35 0 92 5t68 9l180 -474h-51q-23 0 -36 -12t-13 -28q0 -17 13.5 -29.5t37.5 -12.5h235q33 0 48 12t15 30
q0 17 -14.5 28.5t-49.5 11.5h-84l-204 496q89 33 147.5 100.5t58.5 174.5q0 130 -59.5 199.5t-164.5 94t-266 24.5h-320q-24 0 -37.5 -13t-13.5 -31q0 -17 13.5 -29.5t36.5 -12.5h97v-1003h-125q-24 0 -37 -12t-13 -29q0 -16 13.5 -28.5t37.5 -12.5h399q24 0 37 12.5
t13 28.5q0 17 -13 29t-36 12h-180zM556 1085q151 0 234 -18t122 -69t39 -152q0 -95 -50 -144.5t-137.5 -66t-227.5 -16.5h-107v466h127z" />
    <glyph glyph-name="racute" unicode="&#x155;" 
d="M783.5 1283q-19.5 20 -42.5 20q-17 0 -31 -14l-271 -276q-7 -7 -7 -15q0 -9 7.5 -15.5t16.5 -6.5q7 0 11 4l322 234q14 10 14 28q0 21 -19.5 41zM934 572.5q14 -13.5 33 -13.5q20 0 34.5 14.5t14.5 41.5v138q0 30 -20 45t-68 15q-278 0 -392 -175l-4 104q-1 28 -8.5 42
t-29.5 14q-10 0 -23 -3l-171 -34q-14 -3 -22 -13.5t-8 -24.5q0 -16 10.5 -28t29.5 -12q8 0 12 1l122 25v-627h-183q-20 0 -31 -12t-11 -28q0 -17 12 -29.5t34 -12.5h610q19 0 30 12.5t11 28.5q0 17 -10.5 29t-29.5 12h-336v444q40 100 143 152.5t237 52.5v-120
q0 -25 14 -38.5z" />
    <glyph glyph-name="Rcommaaccent" unicode="&#x156;" 
d="M622 -316.5q29 -22.5 77 -22.5q0 -41 -36.5 -79.5t-86.5 -74.5q-12 -9 -12 -21q0 -10 8.5 -18.5t19.5 -8.5q7 0 10 2q43 22 86 63.5t71 95t28 108.5q0 109 -102 109q-40 0 -66 -20t-26 -65q0 -46 29 -68.5zM429 82v460h175q35 0 92 5t68 9l180 -474h-51q-23 0 -36 -12
t-13 -28q0 -17 13.5 -29.5t37.5 -12.5h235q33 0 48 12t15 30q0 17 -14.5 28.5t-49.5 11.5h-84l-204 496q89 33 147.5 100.5t58.5 174.5q0 130 -59.5 199.5t-164.5 94t-266 24.5h-320q-24 0 -37.5 -13t-13.5 -31q0 -17 13.5 -29.5t36.5 -12.5h97v-1003h-125q-24 0 -37 -12
t-13 -29q0 -16 13.5 -28.5t37.5 -12.5h399q24 0 37 12.5t13 28.5q0 17 -13 29t-36 12h-180zM556 1085q151 0 234 -18t122 -69t39 -152q0 -95 -50 -144.5t-137.5 -66t-227.5 -16.5h-107v466h127z" />
    <glyph glyph-name="rcommaaccent" unicode="&#x157;" 
d="M564 -316.5q29 -22.5 77 -22.5q0 -41 -36.5 -79.5t-86.5 -74.5q-12 -9 -12 -21q0 -10 8.5 -18.5t19.5 -8.5q7 0 10 2q43 22 86 63.5t71 95t28 108.5q0 109 -102 109q-40 0 -66 -20t-26 -65q0 -46 29 -68.5zM934 572.5q14 -13.5 33 -13.5q20 0 34.5 14.5t14.5 41.5v138
q0 30 -20 45t-68 15q-278 0 -392 -175l-4 104q-1 28 -8.5 42t-29.5 14q-10 0 -23 -3l-171 -34q-14 -3 -22 -13.5t-8 -24.5q0 -16 10.5 -28t29.5 -12q8 0 12 1l122 25v-627h-183q-20 0 -31 -12t-11 -28q0 -17 12 -29.5t34 -12.5h610q19 0 30 12.5t11 28.5q0 17 -10.5 29
t-29.5 12h-336v444q40 100 143 152.5t237 52.5v-120q0 -25 14 -38.5z" />
    <glyph glyph-name="Rcaron" unicode="&#x158;" 
d="M891 1644q7 7 7 17q0 12 -11.5 21t-25.5 9q-17 0 -23 -9l-163 -209l-162 209q-6 9 -23 9q-14 0 -25.5 -9t-11.5 -21q0 -10 7 -17l184 -283q7 -11 31 -11q25 0 32 11zM429 82v460h175q35 0 92 5t68 9l180 -474h-51q-23 0 -36 -12t-13 -28q0 -17 13.5 -29.5t37.5 -12.5h235
q33 0 48 12t15 30q0 17 -14.5 28.5t-49.5 11.5h-84l-204 496q89 33 147.5 100.5t58.5 174.5q0 130 -59.5 199.5t-164.5 94t-266 24.5h-320q-24 0 -37.5 -13t-13.5 -31q0 -17 13.5 -29.5t36.5 -12.5h97v-1003h-125q-24 0 -37 -12t-13 -29q0 -16 13.5 -28.5t37.5 -12.5h399
q24 0 37 12.5t13 28.5q0 17 -13 29t-36 12h-180zM556 1085q151 0 234 -18t122 -69t39 -152q0 -95 -50 -144.5t-137.5 -66t-227.5 -16.5h-107v466h127z" />
    <glyph glyph-name="rcaron" unicode="&#x159;" 
d="M833 1270q7 7 7 17q0 12 -11.5 21t-25.5 9q-17 0 -23 -9l-163 -209l-162 209q-6 9 -23 9q-14 0 -25.5 -9t-11.5 -21q0 -10 7 -17l184 -283q7 -11 31 -11q25 0 32 11zM934 572.5q14 -13.5 33 -13.5q20 0 34.5 14.5t14.5 41.5v138q0 30 -20 45t-68 15q-278 0 -392 -175
l-4 104q-1 28 -8.5 42t-29.5 14q-10 0 -23 -3l-171 -34q-14 -3 -22 -13.5t-8 -24.5q0 -16 10.5 -28t29.5 -12q8 0 12 1l122 25v-627h-183q-20 0 -31 -12t-11 -28q0 -17 12 -29.5t34 -12.5h610q19 0 30 12.5t11 28.5q0 17 -10.5 29t-29.5 12h-336v444q40 100 143 152.5
t237 52.5v-120q0 -25 14 -38.5z" />
    <glyph glyph-name="Sacute" unicode="&#x15a;" 
d="M828.5 1657q-19.5 20 -42.5 20q-17 0 -31 -14l-271 -276q-7 -7 -7 -15q0 -9 7.5 -15.5t16.5 -6.5q7 0 11 4l322 234q14 10 14 28q0 21 -19.5 41zM918 858q0 -22 13.5 -34.5t31.5 -12.5q20 0 33 13.5t13 39.5v253q0 38 -9.5 54t-30.5 16q-28 0 -40 -23t-12 -69
q-47 52 -124.5 72t-165.5 20q-96 0 -174.5 -35.5t-124.5 -104.5t-46 -166q0 -87 36.5 -142.5t95.5 -88t153 -64.5l164 -56q81 -28 129.5 -55t74.5 -68t26 -103q0 -121 -75 -178t-194 -57q-81 0 -158.5 27t-126.5 69.5t-49 84.5v119q0 23 -13.5 36t-32.5 13t-31.5 -12
t-12.5 -35v-314q0 -42 11 -58t37 -16q23 0 35 32t12 90q53 -56 147 -89t179 -33q102 0 185 33t133 106t50 186q0 83 -35 140.5t-100.5 97t-170.5 75.5l-136 47q-100 35 -144 56t-68.5 58t-24.5 104q0 100 72 157.5t200 57.5q62 0 121.5 -17t100 -51.5t46.5 -83.5v-91z" />
    <glyph glyph-name="sacute" unicode="&#x15b;" 
d="M808.5 1283q-19.5 20 -42.5 20q-17 0 -31 -14l-271 -276q-7 -7 -7 -15q0 -9 7.5 -15.5t16.5 -6.5q7 0 11 4l322 234q14 10 14 28q0 21 -19.5 41zM342 454q55 -48 155 -67l266 -52q64 -12 91 -43.5t27 -82.5q0 -73 -60.5 -108.5t-174.5 -35.5q-85 0 -155 26t-110.5 72
t-40.5 102q0 32 -9.5 42t-26.5 10q-14 0 -25 -13t-11 -39l-2 -226q0 -17 12 -28t28 -11q15 0 25.5 10.5t10.5 31.5v60q55 -63 135.5 -91t174.5 -28q149 0 237.5 56.5t88.5 168.5q0 103 -52.5 153t-149.5 69l-259 52q-71 16 -99 44.5t-28 74.5q0 130 212 130q109 0 184.5 -31
t102.5 -94q1 -47 8 -66t32 -19q20 0 29 9t11 28l2 201q0 23 -12 36t-29 13t-30 -13.5t-12 -36.5v-37q-30 39 -111 65.5t-168 26.5q-137 0 -229.5 -52t-92.5 -175q0 -84 55 -132z" />
    <glyph glyph-name="Scircumflex" unicode="&#x15c;" 
d="M447 1396q-7 -7 -7 -17q0 -12 11.5 -20.5t25.5 -8.5q17 0 23 9l162 209l163 -209q6 -9 23 -9q14 0 25.5 8.5t11.5 20.5q0 10 -7 17l-184 283q-4 6 -13 9t-19 3q-24 0 -31 -12zM918 858q0 -22 13.5 -34.5t31.5 -12.5q20 0 33 13.5t13 39.5v253q0 38 -9.5 54t-30.5 16
q-28 0 -40 -23t-12 -69q-47 52 -124.5 72t-165.5 20q-96 0 -174.5 -35.5t-124.5 -104.5t-46 -166q0 -87 36.5 -142.5t95.5 -88t153 -64.5l164 -56q81 -28 129.5 -55t74.5 -68t26 -103q0 -121 -75 -178t-194 -57q-81 0 -158.5 27t-126.5 69.5t-49 84.5v119q0 23 -13.5 36
t-32.5 13t-31.5 -12t-12.5 -35v-314q0 -42 11 -58t37 -16q23 0 35 32t12 90q53 -56 147 -89t179 -33q102 0 185 33t133 106t50 186q0 83 -35 140.5t-100.5 97t-170.5 75.5l-136 47q-100 35 -144 56t-68.5 58t-24.5 104q0 100 72 157.5t200 57.5q62 0 121.5 -17t100 -51.5
t46.5 -83.5v-91z" />
    <glyph glyph-name="scircumflex" unicode="&#x15d;" 
d="M427 1022q-7 -7 -7 -17q0 -12 11.5 -20.5t25.5 -8.5q17 0 23 9l162 209l163 -209q6 -9 23 -9q14 0 25.5 8.5t11.5 20.5q0 10 -7 17l-184 283q-4 6 -13 9t-19 3q-24 0 -31 -12zM342 454q55 -48 155 -67l266 -52q64 -12 91 -43.5t27 -82.5q0 -73 -60.5 -108.5t-174.5 -35.5
q-85 0 -155 26t-110.5 72t-40.5 102q0 32 -9.5 42t-26.5 10q-14 0 -25 -13t-11 -39l-2 -226q0 -17 12 -28t28 -11q15 0 25.5 10.5t10.5 31.5v60q55 -63 135.5 -91t174.5 -28q149 0 237.5 56.5t88.5 168.5q0 103 -52.5 153t-149.5 69l-259 52q-71 16 -99 44.5t-28 74.5
q0 130 212 130q109 0 184.5 -31t102.5 -94q1 -47 8 -66t32 -19q20 0 29 9t11 28l2 201q0 23 -12 36t-29 13t-30 -13.5t-12 -36.5v-37q-30 39 -111 65.5t-168 26.5q-137 0 -229.5 -52t-92.5 -175q0 -84 55 -132z" />
    <glyph glyph-name="Scedilla" unicode="&#x15e;" 
d="M921.5 545.5q65.5 -39.5 100.5 -97t35 -140.5q0 -113 -50 -186t-133 -106t-185 -33h-10l-39 -308q-5 -42 -22.5 -61t-39.5 -19q-23 0 -36 14.5t-13 39.5q0 17 8 41l103 296q-78 8 -155 39.5t-122 79.5q0 -58 -12 -90t-35 -32q-26 0 -37 16t-11 58v314q0 23 12.5 35
t31.5 12t32.5 -13t13.5 -36v-119q0 -42 49 -84.5t126.5 -69.5t158.5 -27q119 0 194 57t75 178q0 62 -26 103t-74.5 68t-129.5 55l-164 56q-94 32 -153 64.5t-95.5 88t-36.5 142.5q0 97 46 166t124.5 104.5t174.5 35.5q88 0 165.5 -20t124.5 -72q0 46 12 69t40 23
q21 0 30.5 -16t9.5 -54v-253q0 -26 -13 -39.5t-33 -13.5q-18 0 -31.5 12.5t-13.5 34.5v91q-6 49 -46.5 83.5t-100 51.5t-121.5 17q-128 0 -200 -57.5t-72 -157.5q0 -67 24.5 -104t68.5 -58t144 -56l136 -47q105 -36 170.5 -75.5z" />
    <glyph glyph-name="scedilla" unicode="&#x15f;" 
d="M891.5 41q-86.5 -56 -232.5 -58l-39 -308q-5 -42 -22.5 -61t-39.5 -19q-23 0 -36 14.5t-13 39.5q0 17 8 41l103 294q-182 9 -278 118v-60q0 -21 -10.5 -31.5t-25.5 -10.5q-16 0 -28 11t-12 28l2 226q0 26 11 39t25 13q17 0 26.5 -10t9.5 -42q0 -56 40.5 -102t110.5 -72
t155 -26q114 0 174.5 35.5t60.5 108.5q0 51 -27 82.5t-91 43.5l-266 52q-100 19 -155 67t-55 132q0 123 92.5 175t229.5 52q87 0 168 -26.5t111 -65.5v37q-1 23 12 36.5t30 13.5t29 -13t12 -36l-2 -201q-2 -19 -11 -28t-29 -9q-25 0 -32 19t-8 66q-27 63 -102.5 94
t-184.5 31q-212 0 -212 -130q0 -46 28 -74.5t99 -44.5l259 -52q97 -19 149.5 -69t52.5 -153q0 -111 -86.5 -167z" />
    <glyph glyph-name="Scaron" unicode="&#x160;" 
d="M878 1644q7 7 7 17q0 12 -11.5 21t-25.5 9q-17 0 -23 -9l-163 -209l-162 209q-6 9 -23 9q-14 0 -25.5 -9t-11.5 -21q0 -10 7 -17l184 -283q7 -11 31 -11q25 0 32 11zM918 858q0 -22 13.5 -34.5t31.5 -12.5q20 0 33 13.5t13 39.5v253q0 38 -9.5 54t-30.5 16q-28 0 -40 -23
t-12 -69q-47 52 -124.5 72t-165.5 20q-96 0 -174.5 -35.5t-124.5 -104.5t-46 -166q0 -87 36.5 -142.5t95.5 -88t153 -64.5l164 -56q81 -28 129.5 -55t74.5 -68t26 -103q0 -121 -75 -178t-194 -57q-81 0 -158.5 27t-126.5 69.5t-49 84.5v119q0 23 -13.5 36t-32.5 13
t-31.5 -12t-12.5 -35v-314q0 -42 11 -58t37 -16q23 0 35 32t12 90q53 -56 147 -89t179 -33q102 0 185 33t133 106t50 186q0 83 -35 140.5t-100.5 97t-170.5 75.5l-136 47q-100 35 -144 56t-68.5 58t-24.5 104q0 100 72 157.5t200 57.5q62 0 121.5 -17t100 -51.5t46.5 -83.5
v-91z" />
    <glyph glyph-name="scaron" unicode="&#x161;" 
d="M858 1270q7 7 7 17q0 12 -11.5 21t-25.5 9q-17 0 -23 -9l-163 -209l-162 209q-6 9 -23 9q-14 0 -25.5 -9t-11.5 -21q0 -10 7 -17l184 -283q7 -11 31 -11q25 0 32 11zM342 454q55 -48 155 -67l266 -52q64 -12 91 -43.5t27 -82.5q0 -73 -60.5 -108.5t-174.5 -35.5
q-85 0 -155 26t-110.5 72t-40.5 102q0 32 -9.5 42t-26.5 10q-14 0 -25 -13t-11 -39l-2 -226q0 -17 12 -28t28 -11q15 0 25.5 10.5t10.5 31.5v60q55 -63 135.5 -91t174.5 -28q149 0 237.5 56.5t88.5 168.5q0 103 -52.5 153t-149.5 69l-259 52q-71 16 -99 44.5t-28 74.5
q0 130 212 130q109 0 184.5 -31t102.5 -94q1 -47 8 -66t32 -19q20 0 29 9t11 28l2 201q0 23 -12 36t-29 13t-30 -13.5t-12 -36.5v-37q-30 39 -111 65.5t-168 26.5q-137 0 -229.5 -52t-92.5 -175q0 -84 55 -132z" />
    <glyph glyph-name="Tcaron" unicode="&#x164;" 
d="M835 1644q7 7 7 17q0 12 -11.5 21t-25.5 9q-17 0 -23 -9l-163 -209l-162 209q-6 9 -23 9q-14 0 -25.5 -9t-11.5 -21q0 -10 7 -17l184 -283q7 -11 31 -11q25 0 32 11zM570 1085v-999h-242q-23 0 -36.5 -12.5t-13.5 -29.5q0 -18 14 -31t38 -13h576q24 0 37.5 13t13.5 31
q0 17 -13 29.5t-36 12.5h-242v999h352l10 -271q1 -20 14 -31.5t30 -11.5q19 0 32.5 13.5t13.5 38.5v294q0 27 -9.5 40.5t-30.5 13.5h-916q-23 0 -32.5 -13t-9.5 -41v-294q0 -25 15 -39.5t34 -14.5q16 0 28 11.5t13 33.5l12 271h348z" />
    <glyph glyph-name="tcaron" unicode="&#x165;" 
d="M1286.5 893.5q30.5 -23.5 77.5 -23.5q0 -41 -33.5 -82.5t-75.5 -71.5q-12 -9 -12 -21q0 -10 8.5 -18.5t19.5 -8.5q7 0 10 2q43 22 86 63.5t71 95t28 108.5q0 57 -32 89t-80 32q-39 0 -68.5 -25t-29.5 -70q0 -46 30.5 -69.5zM876 692q19 0 29.5 12t10.5 29
q0 16 -10.5 28.5t-28.5 12.5h-372v239q0 22 -7 33.5t-29 11.5q-29 0 -41.5 -25.5t-15.5 -79.5t-3 -179h-147q-20 0 -31 -11.5t-11 -27.5q0 -17 12 -30t34 -13h143v-523q0 -49 35.5 -92t95 -68.5t127.5 -25.5q67 0 135 15.5t119.5 40t72.5 49.5q5 7 5 15q0 17 -14 34t-28 17
q-7 0 -11 -4q-48 -36 -123.5 -60.5t-145.5 -24.5q-77 0 -124.5 33.5t-47.5 105.5v488h371z" />
    <glyph glyph-name="Tbar" unicode="&#x166;" 
d="M1108.5 1157.5q9.5 -13.5 9.5 -40.5v-294q0 -25 -13.5 -38.5t-32.5 -13.5q-17 0 -30 11.5t-14 31.5l-10 271h-352v-437h173q23 0 31 -10t8 -27q0 -39 -41 -39h-171v-486h242q23 0 36 -12.5t13 -29.5q0 -18 -13.5 -31t-37.5 -13h-576q-24 0 -38 13t-14 31q0 17 13.5 29.5
t36.5 12.5h242v486h-166q-46 0 -46 39q0 37 42 37h170v437h-348l-12 -271q-1 -22 -13 -33.5t-28 -11.5q-19 0 -34 14.5t-15 39.5v294q0 28 9.5 41t32.5 13h916q21 0 30.5 -13.5z" />
    <glyph glyph-name="tbar" unicode="&#x167;" 
d="M985 137q14 -17 14 -34q0 -8 -5 -15q-21 -25 -72.5 -49.5t-119.5 -40t-135 -15.5q-68 0 -127.5 25.5t-95 68.5t-35.5 92v259h-89q-46 0 -46 39q0 37 42 37h93v188h-143q-22 0 -34 13t-12 30q0 16 11 27.5t31 11.5h147q0 125 3 179t15.5 79.5t41.5 25.5q22 0 29 -11.5
t7 -33.5v-239h372q18 0 28.5 -12.5t10.5 -28.5q0 -17 -10.5 -29t-29.5 -12h-371v-188h260q23 0 31 -10t8 -27q0 -39 -41 -39h-258v-224q0 -72 47.5 -105.5t124.5 -33.5q70 0 145.5 24.5t123.5 60.5q4 4 11 4q14 0 28 -17z" />
    <glyph glyph-name="Utilde" unicode="&#x168;" 
d="M411.5 1376.5q13.5 -8.5 27.5 -8.5q16 0 22 12q14 34 29 51t34 17q6 0 9 -1q26 -6 90 -40q40 -20 68 -33t56 -20q18 -4 27 -4q78 0 126 125q3 14 -14 26t-34 12q-13 0 -17 -8t-15.5 -30t-23.5 -34t-26 -12t-38.5 11t-64.5 32l-37 18.5t-52 23.5t-40 12q-12 2 -16 2
q-29 0 -58 -20.5t-47.5 -51.5t-18.5 -60q0 -11 13.5 -19.5zM1056 1085h118q33 0 51 12.5t18 29.5q0 18 -18.5 31t-51.5 13h-333q-24 0 -37.5 -13t-13.5 -31q0 -17 13.5 -29.5t36.5 -12.5h121v-674q0 -100 -38 -177.5t-107 -121t-161 -43.5q-149 0 -229 90t-80 254v672h162
q23 0 36 12.5t13 29.5q0 18 -13.5 31t-36.5 13h-401q-23 0 -36.5 -13t-13.5 -31q0 -17 13 -29.5t36 -12.5h145v-672q0 -133 51 -230t142.5 -148.5t211.5 -51.5q118 0 209.5 54t142 151t50.5 223v674z" />
    <glyph glyph-name="utilde" unicode="&#x169;" 
d="M394.5 1002.5q13.5 -8.5 27.5 -8.5q16 0 22 12q14 34 29 51t34 17q6 0 9 -1q26 -6 90 -40q40 -20 68 -33t56 -20q18 -4 27 -4q78 0 126 125q3 14 -14 26t-34 12q-13 0 -17 -8t-15.5 -30t-23.5 -34t-26 -12t-38.5 11t-64.5 32l-37 18.5t-52 23.5t-40 12q-12 2 -16 2
q-29 0 -58 -20.5t-47.5 -51.5t-18.5 -60q0 -11 13.5 -19.5zM366 768q0 14 -9.5 24t-24.5 10q-4 0 -12 -2l-175 -35q-18 -4 -27 -14t-9 -24q0 -17 13 -30t33 -13q11 0 17 2l98 20v-444q0 -83 34.5 -146t100.5 -98t156 -35q94 0 181 43t131 108l5 -87q1 -25 14 -37.5t33 -12.5
h7l186 20q18 4 28 16.5t10 27.5t-10 25t-30 10h-6l-148 -11v683q0 14 -9.5 24t-24.5 10q-4 0 -12 -2l-174 -35q-19 -4 -28.5 -14.5t-9.5 -24.5q0 -17 13 -30t34 -13q9 0 18 3l97 20v-475q-22 -46 -71.5 -84t-111.5 -60t-121 -22q-97 0 -146.5 53.5t-49.5 140.5v509z" />
    <glyph glyph-name="Umacron" unicode="&#x16a;" 
d="M866.5 1425q-12.5 11 -36.5 11h-361q-50 0 -50 -43q0 -21 12 -32t39 -11h362q47 0 47 43q0 21 -12.5 32zM1056 1085h118q33 0 51 12.5t18 29.5q0 18 -18.5 31t-51.5 13h-333q-24 0 -37.5 -13t-13.5 -31q0 -17 13.5 -29.5t36.5 -12.5h121v-674q0 -100 -38 -177.5
t-107 -121t-161 -43.5q-149 0 -229 90t-80 254v672h162q23 0 36 12.5t13 29.5q0 18 -13.5 31t-36.5 13h-401q-23 0 -36.5 -13t-13.5 -31q0 -17 13 -29.5t36 -12.5h145v-672q0 -133 51 -230t142.5 -148.5t211.5 -51.5q118 0 209.5 54t142 151t50.5 223v674z" />
    <glyph glyph-name="umacron" unicode="&#x16b;" 
d="M849.5 1051q-12.5 11 -36.5 11h-361q-50 0 -50 -43q0 -21 12 -32t39 -11h362q47 0 47 43q0 21 -12.5 32zM366 768q0 14 -9.5 24t-24.5 10q-4 0 -12 -2l-175 -35q-18 -4 -27 -14t-9 -24q0 -17 13 -30t33 -13q11 0 17 2l98 20v-444q0 -83 34.5 -146t100.5 -98t156 -35
q94 0 181 43t131 108l5 -87q1 -25 14 -37.5t33 -12.5h7l186 20q18 4 28 16.5t10 27.5t-10 25t-30 10h-6l-148 -11v683q0 14 -9.5 24t-24.5 10q-4 0 -12 -2l-174 -35q-19 -4 -28.5 -14.5t-9.5 -24.5q0 -17 13 -30t34 -13q9 0 18 3l97 20v-475q-22 -46 -71.5 -84t-111.5 -60
t-121 -22q-97 0 -146.5 53.5t-49.5 140.5v509z" />
    <glyph glyph-name="Ubreve" unicode="&#x16c;" 
d="M496 1528q-12 0 -23 -7.5t-11 -16.5q0 -57 31.5 -91.5t74.5 -48.5t81 -14t81 14t74.5 48.5t31.5 91.5q0 9 -11 16.5t-23 7.5q-18 0 -23 -16q-8 -49 -45 -76.5t-85 -27.5t-85 27.5t-45 76.5q-5 16 -23 16zM1056 1085h118q33 0 51 12.5t18 29.5q0 18 -18.5 31t-51.5 13
h-333q-24 0 -37.5 -13t-13.5 -31q0 -17 13.5 -29.5t36.5 -12.5h121v-674q0 -100 -38 -177.5t-107 -121t-161 -43.5q-149 0 -229 90t-80 254v672h162q23 0 36 12.5t13 29.5q0 18 -13.5 31t-36.5 13h-401q-23 0 -36.5 -13t-13.5 -31q0 -17 13 -29.5t36 -12.5h145v-672
q0 -133 51 -230t142.5 -148.5t211.5 -51.5q118 0 209.5 54t142 151t50.5 223v674z" />
    <glyph glyph-name="ubreve" unicode="&#x16d;" 
d="M480 1154q-12 0 -23 -7.5t-11 -16.5q0 -57 31.5 -91.5t74.5 -48.5t81 -14t81 14t74.5 48.5t31.5 91.5q0 9 -11 16.5t-23 7.5q-18 0 -23 -16q-8 -49 -45 -76.5t-85 -27.5t-85 27.5t-45 76.5q-5 16 -23 16zM366 768q0 14 -9.5 24t-24.5 10q-4 0 -12 -2l-175 -35
q-18 -4 -27 -14t-9 -24q0 -17 13 -30t33 -13q11 0 17 2l98 20v-444q0 -83 34.5 -146t100.5 -98t156 -35q94 0 181 43t131 108l5 -87q1 -25 14 -37.5t33 -12.5h7l186 20q18 4 28 16.5t10 27.5t-10 25t-30 10h-6l-148 -11v683q0 14 -9.5 24t-24.5 10q-4 0 -12 -2l-174 -35
q-19 -4 -28.5 -14.5t-9.5 -24.5q0 -17 13 -30t34 -13q9 0 18 3l97 20v-475q-22 -46 -71.5 -84t-111.5 -60t-121 -22q-97 0 -146.5 53.5t-49.5 140.5v509z" />
    <glyph glyph-name="Uring" unicode="&#x16e;" 
d="M498 1436.5q20 -38.5 58.5 -62.5t92.5 -24t93 24.5t59 63.5t20 83t-19.5 82.5t-57.5 62.5t-92 24q-55 0 -94 -24.5t-59.5 -64t-20.5 -83.5q0 -43 20 -81.5zM579 1594q25 30 72 30q46 0 71.5 -30t25.5 -75t-24 -74.5t-70 -29.5t-73 30.5t-27 73.5q0 45 25 75zM1056 1085
h118q33 0 51 12.5t18 29.5q0 18 -18.5 31t-51.5 13h-333q-24 0 -37.5 -13t-13.5 -31q0 -17 13.5 -29.5t36.5 -12.5h121v-674q0 -100 -38 -177.5t-107 -121t-161 -43.5q-149 0 -229 90t-80 254v672h162q23 0 36 12.5t13 29.5q0 18 -13.5 31t-36.5 13h-401q-23 0 -36.5 -13
t-13.5 -31q0 -17 13 -29.5t36 -12.5h145v-672q0 -133 51 -230t142.5 -148.5t211.5 -51.5q118 0 209.5 54t142 151t50.5 223v674z" />
    <glyph glyph-name="uring" unicode="&#x16f;" 
d="M481 1062.5q20 -38.5 58.5 -62.5t92.5 -24t93 24.5t59 63.5t20 83t-19.5 82.5t-57.5 62.5t-92 24q-55 0 -94 -24.5t-59.5 -64t-20.5 -83.5q0 -43 20 -81.5zM562 1220q25 30 72 30q46 0 71.5 -30t25.5 -75t-24 -74.5t-70 -29.5t-73 30.5t-27 73.5q0 45 25 75zM366 768
q0 14 -9.5 24t-24.5 10q-4 0 -12 -2l-175 -35q-18 -4 -27 -14t-9 -24q0 -17 13 -30t33 -13q11 0 17 2l98 20v-444q0 -83 34.5 -146t100.5 -98t156 -35q94 0 181 43t131 108l5 -87q1 -25 14 -37.5t33 -12.5h7l186 20q18 4 28 16.5t10 27.5t-10 25t-30 10h-6l-148 -11v683
q0 14 -9.5 24t-24.5 10q-4 0 -12 -2l-174 -35q-19 -4 -28.5 -14.5t-9.5 -24.5q0 -17 13 -30t34 -13q9 0 18 3l97 20v-475q-22 -46 -71.5 -84t-111.5 -60t-121 -22q-97 0 -146.5 53.5t-49.5 140.5v509z" />
    <glyph glyph-name="Uhungarumlaut" unicode="&#x170;" 
d="M640 1677.5q-19 19.5 -42 19.5q-18 0 -32 -14l-231 -296q-6 -6 -6 -15t7 -15.5t16 -6.5q7 0 11 4l282 254q14 10 14 28q0 22 -19 41.5zM950 1657.5q-19 19.5 -42 19.5q-18 0 -32 -14l-271 -276q-6 -6 -6 -15t7 -15.5t16 -6.5q7 0 11 4l322 234q14 10 14 28q0 22 -19 41.5
zM1056 1085h118q33 0 51 12.5t18 29.5q0 18 -18.5 31t-51.5 13h-333q-24 0 -37.5 -13t-13.5 -31q0 -17 13.5 -29.5t36.5 -12.5h121v-674q0 -100 -38 -177.5t-107 -121t-161 -43.5q-149 0 -229 90t-80 254v672h162q23 0 36 12.5t13 29.5q0 18 -13.5 31t-36.5 13h-401
q-23 0 -36.5 -13t-13.5 -31q0 -17 13 -29.5t36 -12.5h145v-672q0 -133 51 -230t142.5 -148.5t211.5 -51.5q118 0 209.5 54t142 151t50.5 223v674z" />
    <glyph glyph-name="uhungarumlaut" unicode="&#x171;" 
d="M623 1303.5q-19 19.5 -42 19.5q-18 0 -32 -14l-231 -296q-6 -6 -6 -15t7 -15.5t16 -6.5q7 0 11 4l282 254q14 10 14 28q0 22 -19 41.5zM933 1283.5q-19 19.5 -42 19.5q-18 0 -32 -14l-271 -276q-6 -6 -6 -15t7 -15.5t16 -6.5q7 0 11 4l322 234q14 10 14 28q0 22 -19 41.5
zM366 768q0 14 -9.5 24t-24.5 10q-4 0 -12 -2l-175 -35q-18 -4 -27 -14t-9 -24q0 -17 13 -30t33 -13q11 0 17 2l98 20v-444q0 -83 34.5 -146t100.5 -98t156 -35q94 0 181 43t131 108l5 -87q1 -25 14 -37.5t33 -12.5h7l186 20q18 4 28 16.5t10 27.5t-10 25t-30 10h-6
l-148 -11v683q0 14 -9.5 24t-24.5 10q-4 0 -12 -2l-174 -35q-19 -4 -28.5 -14.5t-9.5 -24.5q0 -17 13 -30t34 -13q9 0 18 3l97 20v-475q-22 -46 -71.5 -84t-111.5 -60t-121 -22q-97 0 -146.5 53.5t-49.5 140.5v509z" />
    <glyph glyph-name="Uogonek" unicode="&#x172;" 
d="M1224.5 1158q18.5 -13 18.5 -31q0 -17 -18 -29.5t-51 -12.5h-118v-674q0 -116 -43.5 -208.5t-123 -149t-184.5 -67.5q-4 -6 -15 -31q-41 -80 -69.5 -146t-28.5 -100q0 -30 17 -39t47 -9h23l23 1q26 0 26 -15q0 -17 -17.5 -35t-45.5 -30t-59 -12q-51 0 -81.5 26.5
t-30.5 83.5q0 31 19 86t55.5 114t84.5 103q-119 0 -210.5 51.5t-142.5 148.5t-51 230v672h-145q-23 0 -36 12.5t-13 29.5q0 18 13.5 31t36.5 13h401q23 0 36.5 -13t13.5 -31q0 -17 -13 -29.5t-36 -12.5h-162v-672q0 -164 80 -254t229 -90q92 0 161 43.5t107 121t38 177.5
v674h-121q-23 0 -36.5 12.5t-13.5 29.5q0 18 13.5 31t37.5 13h333q33 0 51.5 -13z" />
    <glyph glyph-name="uogonek" unicode="&#x173;" 
d="M1146 86q10 -10 10 -25t-10 -27.5t-28 -16.5l-162 -17l-17 -34q-42 -82 -71.5 -150t-29.5 -103q0 -30 17 -39t47 -9h23l23 1q26 0 26 -15q0 -17 -17.5 -35t-45.5 -30t-59 -12q-51 0 -81.5 26.5t-30.5 83.5q0 33 21 90.5t60 118.5t91 105q-31 8 -34 49l-5 87
q-44 -65 -131 -108t-181 -43q-90 0 -156 35t-100.5 98t-34.5 146v444l-98 -20q-6 -2 -17 -2q-20 0 -33 13t-13 30q0 14 9 24t27 14l175 35q8 2 12 2q15 0 24.5 -10t9.5 -24v-509q0 -87 49.5 -140.5t146.5 -53.5q59 0 121 22t111.5 60t71.5 84v475l-97 -20q-9 -3 -18 -3
q-21 0 -34 13t-13 30q0 14 9.5 24.5t28.5 14.5l174 35q8 2 12 2q15 0 24.5 -10t9.5 -24v-683l148 11h6q20 0 30 -10z" />
    <glyph glyph-name="Wcircumflex" unicode="&#x174;" 
d="M410 1396q-7 -7 -7 -17q0 -12 11.5 -20.5t25.5 -8.5q17 0 23 9l162 209l163 -209q6 -9 23 -9q14 0 25.5 8.5t11.5 20.5q0 10 -7 17l-184 283q-4 6 -13 9t-19 3q-24 0 -31 -12zM858 196l-169 654q-4 17 -16 26.5t-27 9.5t-28 -9.5t-17 -26.5l-177 -651l-138 886h114
q24 0 37.5 13t13.5 31q0 17 -13 29.5t-36 12.5h-302q-23 0 -36 -12.5t-13 -29.5q0 -18 13.5 -31t36.5 -13h84l166 -1050q3 -24 18 -38t34 -14q17 0 31 11t20 33l187 674l170 -666q6 -24 21 -38t32 -14q20 0 34 11t18 33l164 1058h70q24 0 37.5 13t13.5 31q0 17 -13.5 29.5
t-36.5 12.5h-279q-23 0 -36 -12.5t-13 -29.5q0 -18 13.5 -31t36.5 -13h107z" />
    <glyph glyph-name="wcircumflex" unicode="&#x175;" 
d="M418 1022q-7 -7 -7 -17q0 -12 11.5 -20.5t25.5 -8.5q17 0 23 9l162 209l163 -209q6 -9 23 -9q14 0 25.5 8.5t11.5 20.5q0 10 -7 17l-184 283q-4 6 -13 9t-19 3q-24 0 -31 -12zM465 733q0 -41 42 -41h51l49 -137l-169 -463l-182 600h52q38 0 38 40q0 42 -39 42h-235
q-46 0 -46 -41t42 -41h78l209 -633q15 -46 34.5 -59.5t45.5 -13.5q24 0 40 12.5t32 55.5l144 379l135 -374q17 -45 36 -59t44 -14t42 13t30 55l192 638h69q42 0 42 41t-46 41h-221q-40 0 -40 -42q0 -40 39 -40h65l-169 -600l-212 600h109q38 0 38 40q0 42 -39 42h-254
q-46 0 -46 -41z" />
    <glyph glyph-name="Ycircumflex" unicode="&#x176;" 
d="M404 1396q-7 -7 -7 -17q0 -12 11.5 -20.5t25.5 -8.5q17 0 23 9l162 209l163 -209q6 -9 23 -9q14 0 25.5 8.5t11.5 20.5q0 10 -7 17l-184 283q-4 6 -13 9t-19 3q-24 0 -31 -12zM767 1159.5q-14 -11.5 -14 -26.5t13.5 -26.5t36.5 -11.5h111l-268 -462l-276 462h136
q23 0 36.5 11.5t13.5 26.5t-13.5 26.5t-37.5 11.5h-330q-23 0 -37 -11.5t-14 -26.5t13.5 -26.5t36.5 -11.5h84l335 -542v-467h-261q-23 0 -36.5 -12.5t-13.5 -29.5q0 -18 14 -31t38 -13h585q23 0 36.5 13t13.5 31q0 17 -12.5 29.5t-35.5 12.5h-232v462l323 547h55
q23 0 36 11t13 26q0 16 -13.5 27.5t-37.5 11.5h-261q-23 0 -37 -11.5z" />
    <glyph glyph-name="ycircumflex" unicode="&#x177;" 
d="M407 1022q-7 -7 -7 -17q0 -12 11.5 -20.5t25.5 -8.5q17 0 23 9l162 209l163 -209q6 -9 23 -9q14 0 25.5 8.5t11.5 20.5q0 10 -7 17l-184 283q-4 6 -13 9t-19 3q-24 0 -31 -12zM150 732q0 -40 41 -40h93q27 -59 115 -258q17 -38 79 -178t119 -258l-54 -139
q-11 -29 -37.5 -57t-62.5 -45.5t-72 -17.5q-68 0 -68 -48q0 -24 14.5 -38t53.5 -14q107 0 177.5 73.5t121.5 204.5l303 775h79q42 0 42 41t-46 41h-265q-40 0 -40 -42q0 -40 39 -40h89l-228 -597l-255 597h102q39 0 39 40q0 42 -41 42h-292q-46 0 -46 -42z" />
    <glyph glyph-name="Ydieresis" unicode="&#x178;" 
d="M394 1333q24 -24 59 -24t58.5 24t23.5 58q0 35 -24 59t-58 24t-58.5 -24t-24.5 -59q0 -34 24 -58zM729 1333q24 -24 59 -24t58.5 24t23.5 58q0 35 -24 59t-58 24t-58.5 -24t-24.5 -59q0 -34 24 -58zM767 1159.5q-14 -11.5 -14 -26.5t13.5 -26.5t36.5 -11.5h111l-268 -462
l-276 462h136q23 0 36.5 11.5t13.5 26.5t-13.5 26.5t-37.5 11.5h-330q-23 0 -37 -11.5t-14 -26.5t13.5 -26.5t36.5 -11.5h84l335 -542v-467h-261q-23 0 -36.5 -12.5t-13.5 -29.5q0 -18 14 -31t38 -13h585q23 0 36.5 13t13.5 31q0 17 -12.5 29.5t-35.5 12.5h-232v462l323 547
h55q23 0 36 11t13 26q0 16 -13.5 27.5t-37.5 11.5h-261q-23 0 -37 -11.5z" />
    <glyph glyph-name="Zacute" unicode="&#x179;" 
d="M797.5 1657q-19.5 20 -42.5 20q-17 0 -31 -14l-271 -276q-7 -7 -7 -15q0 -9 7.5 -15.5t16.5 -6.5q7 0 11 4l322 234q14 10 14 28q0 21 -19.5 41zM336 767.5q13 10.5 14 29.5l16 288h514l-633 -990q-2 -4 -15 -25t-13 -39q0 -31 52 -31h722q23 0 37.5 14t13.5 39l-10 332
q0 25 -12 37.5t-29 12.5q-19 0 -34.5 -14t-16.5 -37v-298h-573l622 995q10 16 10 35q0 22 -13 38.5t-36 16.5h-630q-35 0 -51 -15.5t-17 -39.5v-310q0 -23 15.5 -36t35.5 -13q18 0 31 10.5z" />
    <glyph glyph-name="zacute" unicode="&#x17a;" 
d="M812.5 1283q-19.5 20 -42.5 20q-17 0 -31 -14l-271 -276q-7 -7 -7 -15q0 -9 7.5 -15.5t16.5 -6.5q7 0 11 4l322 234q14 10 14 28q0 21 -19.5 41zM287 758q-14 -14 -14 -32v-226q0 -23 13.5 -36.5t31.5 -13.5q17 0 29 12t13 33l8 197h461l-534 -583q-17 -19 -17 -50
q0 -27 14 -43t42 -16h613q19 0 35 14t16 32v269q0 20 -12 31t-29 11t-30 -10.5t-14 -27.5l-11 -237h-515l552 600q8 8 13 20.5t5 24.5q0 19 -14.5 32t-46.5 13h-577q-18 0 -32 -14z" />
    <glyph glyph-name="Zdotaccent" unicode="&#x17b;" 
d="M573 1333q24 -24 59 -24q34 0 58 24t24 58q0 35 -24 59t-58 24q-35 0 -59 -24t-24 -59q0 -34 24 -58zM336 767.5q13 10.5 14 29.5l16 288h514l-633 -990q-2 -4 -15 -25t-13 -39q0 -31 52 -31h722q23 0 37.5 14t13.5 39l-10 332q0 25 -12 37.5t-29 12.5q-19 0 -34.5 -14
t-16.5 -37v-298h-573l622 995q10 16 10 35q0 22 -13 38.5t-36 16.5h-630q-35 0 -51 -15.5t-17 -39.5v-310q0 -23 15.5 -36t35.5 -13q18 0 31 10.5z" />
    <glyph glyph-name="zdotaccent" unicode="&#x17c;" 
d="M577 959q24 -24 59 -24q34 0 58 24t24 58q0 35 -24 59t-58 24q-35 0 -59 -24t-24 -59q0 -34 24 -58zM287 758q-14 -14 -14 -32v-226q0 -23 13.5 -36.5t31.5 -13.5q17 0 29 12t13 33l8 197h461l-534 -583q-17 -19 -17 -50q0 -27 14 -43t42 -16h613q19 0 35 14t16 32v269
q0 20 -12 31t-29 11t-30 -10.5t-14 -27.5l-11 -237h-515l552 600q8 8 13 20.5t5 24.5q0 19 -14.5 32t-46.5 13h-577q-18 0 -32 -14z" />
    <glyph glyph-name="Zcaron" unicode="&#x17d;" 
d="M847 1644q7 7 7 17q0 12 -11.5 21t-25.5 9q-17 0 -23 -9l-163 -209l-162 209q-6 9 -23 9q-14 0 -25.5 -9t-11.5 -21q0 -10 7 -17l184 -283q7 -11 31 -11q25 0 32 11zM336 767.5q13 10.5 14 29.5l16 288h514l-633 -990q-2 -4 -15 -25t-13 -39q0 -31 52 -31h722
q23 0 37.5 14t13.5 39l-10 332q0 25 -12 37.5t-29 12.5q-19 0 -34.5 -14t-16.5 -37v-298h-573l622 995q10 16 10 35q0 22 -13 38.5t-36 16.5h-630q-35 0 -51 -15.5t-17 -39.5v-310q0 -23 15.5 -36t35.5 -13q18 0 31 10.5z" />
    <glyph glyph-name="zcaron" unicode="&#x17e;" 
d="M862 1270q7 7 7 17q0 12 -11.5 21t-25.5 9q-17 0 -23 -9l-163 -209l-162 209q-6 9 -23 9q-14 0 -25.5 -9t-11.5 -21q0 -10 7 -17l184 -283q7 -11 31 -11q25 0 32 11zM287 758q-14 -14 -14 -32v-226q0 -23 13.5 -36.5t31.5 -13.5q17 0 29 12t13 33l8 197h461l-534 -583
q-17 -19 -17 -50q0 -27 14 -43t42 -16h613q19 0 35 14t16 32v269q0 20 -12 31t-29 11t-30 -10.5t-14 -27.5l-11 -237h-515l552 600q8 8 13 20.5t5 24.5q0 19 -14.5 32t-46.5 13h-577q-18 0 -32 -14z" />
    <glyph glyph-name="florin" unicode="&#x192;" 
d="M846 690q16 0 25.5 13t11.5 31v5q0 15 -7.5 25t-21.5 10h-170l6 67q9 106 41.5 164.5t84.5 82t133 30.5l-8 -102v-2q0 -11 12 -17.5t28 -6.5q19 0 34 8t16 22l10 117v5q0 21 -15.5 33.5t-37.5 12.5q-185 0 -282 -85t-112 -265l-6 -64h-149q-15 0 -24.5 -12t-11.5 -28v-5
q0 -16 8.5 -27.5t24.5 -11.5h145l-54 -644q-9 -102 -58.5 -142.5t-123.5 -40.5l8 98v3q0 11 -10 17t-25 6q-16 0 -30 -8t-15 -22l-10 -118l-1 -13q0 -19 7.5 -28t26.5 -9q82 0 148.5 16.5t117.5 74t61 168.5l54 642h169z" />
    <glyph glyph-name="uni01C4" unicode="&#x1c4;" 
d="M1126 1620q0 12 -11.5 21t-25.5 9q-17 0 -23 -9l-113 -209l-142 209q-6 9 -23 9q-14 0 -25.5 -9t-11.5 -21q0 -10 7 -17l164 -283q7 -11 31 -11q25 0 32 11l134 283q7 7 7 17zM605.5 921.5q-43.5 127.5 -135.5 188.5t-240 61h-110q-23 0 -36.5 -13t-13.5 -31
q0 -17 12.5 -29.5t35.5 -12.5h21v-999h-25q-23 0 -36.5 -13t-13.5 -30q0 -18 13.5 -30.5t37.5 -12.5h113q147 0 239.5 60t137 189.5t44.5 341.5q0 203 -43.5 330.5zM1162 315q0 24 -14 36t-32 12t-31.5 -13t-14.5 -36v-228h-259l318 995q3 12 3 30q0 25 -9 42.5t-33 17.5
h-300q-34 0 -45.5 -14.5t-12.5 -40.5v-250q0 -24 11 -36.5t30 -12.5q18 0 31.5 10.5t13.5 29.5v228h220l-323 -990q-11 -35 -11 -56q0 -39 35 -39h372q23 0 37.5 14t13.5 39v262zM427.5 1029q69.5 -56 97.5 -163t28 -275q0 -179 -26 -287t-95 -163t-197 -55v999
q123 0 192.5 -56z" />
    <glyph glyph-name="uni01C5" unicode="&#x1c5;" 
d="M1173 1229q7 7 7 17q0 12 -11.5 21t-25.5 9q-17 0 -23 -9l-163 -209l-162 209q-6 9 -23 9q-14 0 -25.5 -9t-11.5 -21q0 -10 7 -17l184 -283q7 -11 31 -11q25 0 32 11zM605.5 921.5q-43.5 127.5 -135.5 188.5t-240 61h-110q-23 0 -36.5 -13t-13.5 -31q0 -17 12.5 -29.5
t35.5 -12.5h21v-999h-25q-23 0 -36.5 -13t-13.5 -30q0 -18 13.5 -30.5t37.5 -12.5h113q147 0 239.5 60t137 189.5t44.5 341.5q0 203 -43.5 330.5zM427.5 1029q69.5 -56 97.5 -163t28 -275q0 -179 -26 -287t-95 -163t-197 -55v999q123 0 192.5 -56zM750 758q-14 -14 -14 -32
v-186q0 -23 13.5 -36.5t31.5 -13.5q17 0 29 12t13 33l8 157h203l-267 -583q-2 -3 -9.5 -17.5t-7.5 -32.5q0 -27 14 -43t42 -16h304q19 0 35 14t16 32v209q0 20 -12 31t-29 11t-30 -10.5t-14 -27.5l-11 -177h-205l272 600q3 5 10.5 19t7.5 26q0 19 -14.5 32t-46.5 13h-307
q-18 0 -32 -14z" />
    <glyph glyph-name="uni01C6" unicode="&#x1c6;" 
d="M1173 1229q7 7 7 17q0 12 -11.5 21t-25.5 9q-17 0 -23 -9l-163 -209l-162 209q-6 9 -23 9q-14 0 -25.5 -9t-11.5 -21q0 -10 7 -17l184 -283q7 -11 31 -11q25 0 32 11zM551 -3l94 15q18 4 28 16.5t10 27.5t-10 25t-30 10h-6l-56 -6v1056q0 39 -41 39q-4 0 -20 -2l-189 -19
q-17 -3 -25 -15t-8 -26q0 -16 11 -27t28 -11q6 0 11 1t9 2l128 8v-377q-43 49 -91.5 74t-94.5 25q-67 0 -121 -51.5t-84.5 -145.5t-30.5 -218q0 -119 33.5 -213.5t90.5 -147.5t123 -53q49 0 97.5 31t86.5 92l3 -60q1 -25 14 -37.5t33 -12.5h7zM750 758q-14 -14 -14 -32v-186
q0 -23 13.5 -36.5t31.5 -13.5q17 0 29 12t13 33l8 157h203l-267 -583q-2 -3 -9.5 -17.5t-7.5 -32.5q0 -27 14 -43t42 -16h304q19 0 35 14t16 32v209q0 20 -12 31t-29 11t-30 -10.5t-14 -27.5l-11 -177h-205l272 600q3 5 10.5 19t7.5 26q0 19 -14.5 32t-46.5 13h-307
q-18 0 -32 -14zM395 706q46 -29 90 -87v-409q-34 -74 -78.5 -112t-88.5 -38q-46 0 -82 40.5t-56.5 117t-20.5 180.5q0 160 39 248.5t111 88.5q40 0 86 -29z" />
    <glyph glyph-name="uni01C7" unicode="&#x1c7;" 
d="M19.5 1158q-13.5 -13 -13.5 -31q0 -17 13 -29.5t36 -12.5h47v-999h-39q-23 0 -36.5 -13t-13.5 -30q0 -18 13.5 -30.5t37.5 -12.5h455q31 0 49.5 18.5t22.5 47.5v317q0 23 -15 36t-36 13q-19 0 -33 -11t-17 -32l-7 -290q0 -2 -0.5 -6.5t-2.5 -5.5t-5 -1h-277v999h152
q23 0 36.5 12.5t13.5 29.5q0 18 -13.5 31t-37.5 13h-293q-23 0 -36.5 -13zM1225 1085q23 0 36 13t13 30q0 18 -13 30.5t-37 12.5h-445q-23 0 -36 -13t-13 -31q0 -17 12.5 -29.5t35.5 -12.5h280v-721q0 -120 -12.5 -182t-46.5 -88t-100 -26q-65 0 -95.5 25t-30.5 77v113
q0 21 -14 33t-33 12t-34 -12t-15 -33v-112q0 -86 57 -135t156 -49t156 34t82.5 116t25.5 230v718h71z" />
    <glyph glyph-name="uni01C8" unicode="&#x1c8;" 
d="M118.5 1158q-13.5 -13 -13.5 -31q0 -17 13 -29.5t36 -12.5h103v-999h-145q-23 0 -36.5 -13t-13.5 -30q0 -18 13.5 -30.5t37.5 -12.5h606q31 0 49.5 18.5t22.5 47.5l30 321v6q0 23 -15 36t-36 13q-19 0 -33 -11t-17 -32l-34 -276q-2 -21 -12 -28t-29 -9h-292v999h112
q23 0 36.5 12.5t13.5 29.5q0 18 -13.5 31t-37.5 13h-309q-23 0 -36.5 -13zM963 1030q24 -24 59 -24t58.5 24t23.5 58q0 35 -24 59t-58 24t-58.5 -24t-24.5 -59q0 -34 24 -58zM1116 785q0 15 -10 22t-26 7h-330q-19 0 -29.5 -11.5t-10.5 -27.5q0 -17 11.5 -30t32.5 -13h266
v-732q0 -113 -74.5 -166.5t-210.5 -53.5q-27 0 -42.5 -13.5t-15.5 -31.5t14 -31t37 -13q122 0 209 35.5t133 102.5t46 161v795z" />
    <glyph glyph-name="uni01C9" unicode="&#x1c9;" 
d="M429 1181l-299 -39q-16 -2 -24 -13.5t-8 -26.5q0 -17 11 -29.5t30 -12.5l7 1l234 29v-1008h-238q-20 0 -31 -12t-11 -28q0 -17 12 -29.5t34 -12.5h549q19 0 29.5 12t10.5 29q0 16 -10.5 28.5t-28.5 12.5h-220v1068q0 15 -10 23.5t-26 8.5zM940 1030q24 -24 59 -24
t58.5 24t23.5 58q0 35 -24 59t-58 24t-58.5 -24t-24.5 -59q0 -34 24 -58zM1066 785q0 15 -10 22t-26 7h-330q-19 0 -29.5 -11.5t-10.5 -27.5q0 -17 11.5 -30t32.5 -13h266v-732q0 -113 -74.5 -166.5t-210.5 -53.5q-27 0 -42.5 -13.5t-15.5 -31.5t14 -31t37 -13
q122 0 209 35.5t133 102.5t46 161v795z" />
    <glyph glyph-name="uni01CA" unicode="&#x1ca;" 
d="M135 86h-36q-23 0 -36 -13t-13 -30q0 -18 13 -30.5t37 -12.5h198q24 0 37 12.5t13 30.5q0 17 -13 30t-36 13h-68v978l343 -1042q6 -18 22.5 -28t33.5 -10q21 0 35 16t14 47v1038h379v-781q0 -95 -12.5 -147t-32.5 -70.5t-49 -18.5q-31 0 -56 24.5t-25 87.5v53
q0 21 -14 33t-33 12t-34 -12t-15 -33v-52q0 -63 24.5 -107t62 -66t77.5 -22q203 0 203 321v778h71q23 0 36 13t13 30q0 18 -13 30.5t-37 12.5h-718q-24 0 -37.5 -13t-13.5 -31q0 -17 13 -29.5t36 -12.5h79v-803l-281 865q-4 13 -13.5 18.5t-26.5 5.5h-182q-23 0 -36.5 -13
t-13.5 -31q0 -17 13 -29.5t36 -12.5h56v-999z" />
    <glyph glyph-name="uni01CB" unicode="&#x1cb;" 
d="M165 86h-66q-23 0 -36 -13t-13 -30q0 -18 13 -30.5t37 -12.5h228q24 0 37 12.5t13 30.5q0 17 -13 30t-36 13h-68v978l373 -1042q6 -18 22.5 -28t33.5 -10q21 0 35 16t14 47v1038h56q23 0 35.5 12.5t12.5 29.5q0 18 -13.5 31t-36.5 13h-227q-24 0 -37.5 -13t-13.5 -31
q0 -17 13 -29.5t36 -12.5h79v-803l-311 865q-4 13 -13.5 18.5t-26.5 5.5h-212q-23 0 -36.5 -13t-13.5 -31q0 -17 13 -29.5t36 -12.5h86v-999zM993 1030q24 -24 59 -24t58.5 24t23.5 58q0 35 -24 59t-58 24t-58.5 -24t-24.5 -59q0 -34 24 -58zM1136 785q0 15 -10 22t-26 7
h-250q-19 0 -29.5 -11.5t-10.5 -27.5q0 -17 11.5 -30t32.5 -13h186v-732q0 -113 -74.5 -166.5t-210.5 -53.5q-27 0 -42.5 -13.5t-15.5 -31.5t14 -31t37 -13q122 0 209 35.5t133 102.5t46 161v795z" />
    <glyph glyph-name="uni01CC" unicode="&#x1cc;" 
d="M985 1030q24 -24 59 -24t58.5 24t23.5 58q0 35 -24 59t-58 24t-58.5 -24t-24.5 -59q0 -34 24 -58zM1136 785q0 15 -10 22t-26 7h-250q-19 0 -29.5 -11.5t-10.5 -27.5q0 -17 11.5 -30t32.5 -13h186v-732q0 -113 -74.5 -166.5t-210.5 -53.5q-27 0 -42.5 -13.5t-15.5 -31.5
t14 -31t37 -13q122 0 209 35.5t133 102.5t46 161v795zM638 82h-86q-20 0 -31 -11.5t-11 -27.5q0 -17 12 -30t34 -13h225q20 0 31 12.5t11 29.5q0 16 -10.5 28t-29.5 12h-49v451q0 137 -61 208.5t-200 71.5q-66 0 -109.5 -22t-71.5 -58t-58 -94l-5 120q-2 39 -39 39
q-4 0 -18 -2l-114 -21q-17 -4 -25 -15.5t-8 -25.5q0 -16 11 -27t28 -11q10 0 20 3l58 10v-627h-58q-20 0 -31 -11.5t-11 -27.5q0 -17 12 -30t34 -13h223q23 0 36.5 12.5t13.5 29.5q0 16 -12.5 28t-35.5 12h-75v421q0 93 55 160.5t185 67.5q87 0 123.5 -48.5t36.5 -142.5
v-458z" />
    <glyph glyph-name="uni01F1" unicode="&#x1f1;" 
d="M605.5 921.5q-43.5 127.5 -135.5 188.5t-240 61h-110q-23 0 -36.5 -13t-13.5 -31q0 -17 12.5 -29.5t35.5 -12.5h21v-999h-25q-23 0 -36.5 -13t-13.5 -30q0 -18 13.5 -30.5t37.5 -12.5h113q147 0 239.5 60t137 189.5t44.5 341.5q0 203 -43.5 330.5zM1162 315q0 24 -14 36
t-32 12t-31.5 -13t-14.5 -36v-228h-259l318 995q3 12 3 30q0 25 -9 42.5t-33 17.5h-300q-34 0 -45.5 -14.5t-12.5 -40.5v-250q0 -24 11 -36.5t30 -12.5q18 0 31.5 10.5t13.5 29.5v228h220l-323 -990q-11 -35 -11 -56q0 -39 35 -39h372q23 0 37.5 14t13.5 39v262zM427.5 1029
q69.5 -56 97.5 -163t28 -275q0 -179 -26 -287t-95 -163t-197 -55v999q123 0 192.5 -56z" />
    <glyph glyph-name="uni01F2" unicode="&#x1f2;" 
d="M605.5 921.5q-43.5 127.5 -135.5 188.5t-240 61h-110q-23 0 -36.5 -13t-13.5 -31q0 -17 12.5 -29.5t35.5 -12.5h21v-999h-25q-23 0 -36.5 -13t-13.5 -30q0 -18 13.5 -30.5t37.5 -12.5h113q147 0 239.5 60t137 189.5t44.5 341.5q0 203 -43.5 330.5zM427.5 1029
q69.5 -56 97.5 -163t28 -275q0 -179 -26 -287t-95 -163t-197 -55v999q123 0 192.5 -56zM750 758q-14 -14 -14 -32v-186q0 -23 13.5 -36.5t31.5 -13.5q17 0 29 12t13 33l8 157h203l-267 -583q-2 -3 -9.5 -17.5t-7.5 -32.5q0 -27 14 -43t42 -16h304q19 0 35 14t16 32v209
q0 20 -12 31t-29 11t-30 -10.5t-14 -27.5l-11 -177h-205l272 600q3 5 10.5 19t7.5 26q0 19 -14.5 32t-46.5 13h-307q-18 0 -32 -14z" />
    <glyph glyph-name="uni01F3" unicode="&#x1f3;" 
d="M551 -3l94 15q18 4 28 16.5t10 27.5t-10 25t-30 10h-6l-56 -6v1056q0 39 -41 39q-4 0 -20 -2l-189 -19q-17 -3 -25 -15t-8 -26q0 -16 11 -27t28 -11q6 0 11 1t9 2l128 8v-377q-43 49 -91.5 74t-94.5 25q-67 0 -121 -51.5t-84.5 -145.5t-30.5 -218q0 -119 33.5 -213.5
t90.5 -147.5t123 -53q49 0 97.5 31t86.5 92l3 -60q1 -25 14 -37.5t33 -12.5h7zM750 758q-14 -14 -14 -32v-186q0 -23 13.5 -36.5t31.5 -13.5q17 0 29 12t13 33l8 157h203l-267 -583q-2 -3 -9.5 -17.5t-7.5 -32.5q0 -27 14 -43t42 -16h304q19 0 35 14t16 32v209q0 20 -12 31
t-29 11t-30 -10.5t-14 -27.5l-11 -177h-205l272 600q3 5 10.5 19t7.5 26q0 19 -14.5 32t-46.5 13h-307q-18 0 -32 -14zM395 706q46 -29 90 -87v-409q-34 -74 -78.5 -112t-88.5 -38q-46 0 -82 40.5t-56.5 117t-20.5 180.5q0 160 39 248.5t111 88.5q40 0 86 -29z" />
    <glyph glyph-name="uni01F4" unicode="&#x1f4;" 
d="M807.5 1657q-19.5 20 -42.5 20q-17 0 -31 -14l-271 -276q-7 -7 -7 -15q0 -9 7.5 -15.5t16.5 -6.5q7 0 11 4l322 234q14 10 14 28q0 21 -19.5 41zM1181.5 523q13.5 13 13.5 31q0 17 -13 29.5t-36 12.5h-284q-23 0 -36 -12.5t-13 -29.5q0 -18 13.5 -31t36.5 -13h124v-178
q-38 -119 -134.5 -191t-245.5 -72q-119 0 -215 63.5t-151.5 183.5t-55.5 284q0 147 49 260t144.5 177t229.5 64q89 0 164 -34.5t125.5 -96.5t65.5 -143q4 -22 17 -34.5t31 -12.5q19 0 32.5 12t13.5 35v293q0 24 -14.5 37.5t-34.5 13.5t-34.5 -13.5t-14.5 -36.5v-106
q-27 49 -80.5 88t-124.5 61.5t-149 22.5q-152 0 -269.5 -72.5t-182 -204t-64.5 -303.5q0 -188 65 -329.5t182 -218t270 -76.5q88 0 166 24.5t134 68t81 99.5v-124q0 -28 14.5 -43.5t34.5 -15.5q19 0 33 15t14 42v461h61q24 0 37.5 13z" />
    <glyph glyph-name="uni01F5" unicode="&#x1f5;" 
d="M888.5 1347q-19.5 20 -42.5 20q-17 0 -31 -14l-271 -276q-7 -7 -7 -15q0 -9 7.5 -15.5t16.5 -6.5q7 0 11 4l322 234q14 10 14 28q0 21 -19.5 41zM424.5 238.5q25.5 22.5 69 35.5t94.5 13q169 0 252.5 61t83.5 192q0 90 -57 161l169 74q70 0 101.5 14t31.5 37q0 51 -58 51
q-59 0 -121 -42l-152 -101q-47 39 -109 59t-130 20q-89 0 -162.5 -29.5t-117 -90t-43.5 -148.5q0 -82 43 -130.5t129 -83.5q-29 -4 -63 -24.5t-58 -53t-24 -68.5q0 -45 23.5 -74.5t70.5 -52.5q-53 -26 -86 -79.5t-33 -125.5q0 -110 86 -156.5t221 -46.5q107 0 200.5 26
t151 79t57.5 131q0 92 -40 140t-115 65.5t-198 17.5h-93q-62 0 -94.5 10.5t-43.5 28t-11 42.5q0 26 25.5 48.5zM433.5 407.5q-61.5 46.5 -61.5 134.5q0 95 63 142t162 47q101 0 166 -47.5t65 -149.5q0 -95 -66 -134t-171 -39q-96 0 -157.5 46.5zM797 23.5
q54 -13.5 77.5 -46.5t23.5 -95q0 -78 -94.5 -114t-220.5 -36q-108 0 -158.5 31.5t-50.5 114.5q0 28 13.5 62.5t33.5 62t39 34.5h184q99 0 153 -13.5z" />
    <glyph glyph-name="uni0200" unicode="&#x200;" 
d="M924 1350q9 0 16 6.5t7 15.5t-6 15l-231 296q-14 14 -32 14q-23 0 -42 -19.5t-19 -41.5q0 -18 14 -28l282 -254q4 -4 11 -4zM654 1350q9 0 16 6.5t7 15.5t-6 15l-271 276q-14 14 -32 14q-23 0 -42 -19.5t-19 -41.5q0 -18 14 -28l322 -234q4 -4 11 -4zM475.5 12.5
q13.5 12.5 13.5 30.5q0 17 -13.5 30t-36.5 13h-159l112 306h483l107 -306h-186q-23 0 -36 -12.5t-13 -29.5q0 -18 13.5 -31t37.5 -13h366q23 0 36.5 13t13.5 31q0 17 -12.5 29.5t-35.5 12.5h-79l-362 1020q-23 65 -81 65h-303q-23 0 -36 -13t-13 -30q0 -18 13 -30.5
t37 -12.5h217l-385 -999h-85q-23 0 -36 -13t-13 -30q0 -18 13 -30.5t37 -12.5h348q24 0 37.5 12.5zM646 1072l199 -597h-420z" />
    <glyph glyph-name="uni0201" unicode="&#x201;" 
d="M863 976q9 0 16 6.5t7 15.5t-6 15l-231 296q-14 14 -32 14q-23 0 -42 -19.5t-19 -41.5q0 -18 14 -28l282 -254q4 -4 11 -4zM593 976q9 0 16 6.5t7 15.5t-6 15l-271 276q-14 14 -32 14q-23 0 -42 -19.5t-19 -41.5q0 -18 14 -28l322 -234q4 -4 11 -4zM814 470l-73 -5
q-163 -11 -259.5 -28t-162.5 -70t-66 -157q0 -103 63 -164.5t175 -61.5q104 0 192.5 37t137.5 92q12 -71 47 -95.5t86 -24.5q45 0 86.5 19.5t73.5 53.5q10 10 10 25q0 16 -11 29t-26 13q-13 0 -24 -12q-17 -18 -46 -33.5t-55 -15.5q-24 0 -38 12.5t-14 47.5v312
q0 122 -26 202.5t-91.5 123.5t-180.5 43q-102 0 -181 -27t-123 -75t-44 -108q0 -32 15.5 -52t44.5 -20q34 0 48 39t18 116q53 24 105.5 34.5t115.5 10.5q112 0 157.5 -62t45.5 -179v-20zM675.5 98.5q-84.5 -33.5 -173.5 -33.5q-69 0 -110.5 34.5t-41.5 110.5q0 70 48 106
t129.5 50.5t245.5 30.5l41 4v-212q-54 -57 -138.5 -90.5z" />
    <glyph glyph-name="uni0202" unicode="&#x202;" 
d="M780 1350q12 0 23 7.5t11 16.5q0 57 -31.5 91.5t-74.5 48.5t-81 14t-81 -14t-74.5 -48.5t-31.5 -91.5q0 -9 11 -16.5t23 -7.5q18 0 23 16q8 49 45 76.5t85 27.5t85 -27.5t45 -76.5q5 -16 23 -16zM475.5 12.5q13.5 12.5 13.5 30.5q0 17 -13.5 30t-36.5 13h-159l112 306
h483l107 -306h-186q-23 0 -36 -12.5t-13 -29.5q0 -18 13.5 -31t37.5 -13h366q23 0 36.5 13t13.5 31q0 17 -12.5 29.5t-35.5 12.5h-79l-362 1020q-23 65 -81 65h-303q-23 0 -36 -13t-13 -30q0 -18 13 -30.5t37 -12.5h217l-385 -999h-85q-23 0 -36 -13t-13 -30q0 -18 13 -30.5
t37 -12.5h348q24 0 37.5 12.5zM646 1072l199 -597h-420z" />
    <glyph glyph-name="uni0203" unicode="&#x203;" 
d="M801 976q12 0 23 7.5t11 16.5q0 57 -31.5 91.5t-74.5 48.5t-81 14t-81 -14t-74.5 -48.5t-31.5 -91.5q0 -9 11 -16.5t23 -7.5q18 0 23 16q8 49 45 76.5t85 27.5t85 -27.5t45 -76.5q5 -16 23 -16zM814 470l-73 -5q-163 -11 -259.5 -28t-162.5 -70t-66 -157
q0 -103 63 -164.5t175 -61.5q104 0 192.5 37t137.5 92q12 -71 47 -95.5t86 -24.5q45 0 86.5 19.5t73.5 53.5q10 10 10 25q0 16 -11 29t-26 13q-13 0 -24 -12q-17 -18 -46 -33.5t-55 -15.5q-24 0 -38 12.5t-14 47.5v312q0 122 -26 202.5t-91.5 123.5t-180.5 43
q-102 0 -181 -27t-123 -75t-44 -108q0 -32 15.5 -52t44.5 -20q34 0 48 39t18 116q53 24 105.5 34.5t115.5 10.5q112 0 157.5 -62t45.5 -179v-20zM675.5 98.5q-84.5 -33.5 -173.5 -33.5q-69 0 -110.5 34.5t-41.5 110.5q0 70 48 106t129.5 50.5t245.5 30.5l41 4v-212
q-54 -57 -138.5 -90.5z" />
    <glyph glyph-name="uni0204" unicode="&#x204;" 
d="M917 1350q9 0 16 6.5t7 15.5t-6 15l-231 296q-14 14 -32 14q-23 0 -42 -19.5t-19 -41.5q0 -18 14 -28l282 -254q4 -4 11 -4zM647 1350q9 0 16 6.5t7 15.5t-6 15l-271 276q-14 14 -32 14q-23 0 -42 -19.5t-19 -41.5q0 -18 14 -28l322 -234q4 -4 11 -4zM826 818.5
q-11 13.5 -27 13.5q-15 0 -26.5 -12t-13.5 -33l-13 -133h-326v431h609l14 -244q1 -18 13.5 -28t28.5 -10t28 11.5t12 32.5v270q0 25 -15.5 39.5t-40.5 14.5h-878q-23 0 -36.5 -13t-13.5 -31q0 -17 12.5 -29.5t35.5 -12.5h135v-1000h-170q-23 0 -36.5 -12.5t-13.5 -29.5
t13.5 -30t37.5 -13h926q25 0 40.5 14t15.5 39v270q0 25 -12.5 38.5t-29.5 13.5t-30 -11t-14 -28l-16 -251h-615v492h326l13 -148q1 -20 13 -31.5t27 -11.5q16 0 27 13t11 38v342q0 26 -11 39.5z" />
    <glyph glyph-name="uni0205" unicode="&#x205;" 
d="M869 976q9 0 16 6.5t7 15.5t-6 15l-231 296q-14 14 -32 14q-23 0 -42 -19.5t-19 -41.5q0 -18 14 -28l282 -254q4 -4 11 -4zM599 976q9 0 16 6.5t7 15.5t-6 15l-271 276q-14 14 -32 14q-23 0 -42 -19.5t-19 -41.5q0 -18 14 -28l322 -234q4 -4 11 -4zM269 180.5
q57 -95.5 159.5 -146.5t236.5 -51q85 0 182.5 33t149.5 89q18 20 18 42q0 18 -11 31t-29 13q-20 0 -41 -17q-57 -54 -129.5 -81.5t-147.5 -27.5q-154 0 -249 82t-100 240l629 5q35 0 56 24.5t21 62.5q0 107 -46.5 182t-128 113.5t-185.5 38.5q-122 0 -222.5 -49t-160 -141
t-59.5 -216q0 -131 57 -226.5zM867 652q55 -79 62 -187l-618 -4q18 128 108.5 199t236.5 71q156 0 211 -79z" />
    <glyph glyph-name="uni0206" unicode="&#x206;" 
d="M853 1350q12 0 23 7.5t11 16.5q0 57 -31.5 91.5t-74.5 48.5t-81 14t-81 -14t-74.5 -48.5t-31.5 -91.5q0 -9 11 -16.5t23 -7.5q18 0 23 16q8 49 45 76.5t85 27.5t85 -27.5t45 -76.5q5 -16 23 -16zM826 818.5q-11 13.5 -27 13.5q-15 0 -26.5 -12t-13.5 -33l-13 -133h-326
v431h609l14 -244q1 -18 13.5 -28t28.5 -10t28 11.5t12 32.5v270q0 25 -15.5 39.5t-40.5 14.5h-878q-23 0 -36.5 -13t-13.5 -31q0 -17 12.5 -29.5t35.5 -12.5h135v-1000h-170q-23 0 -36.5 -12.5t-13.5 -29.5t13.5 -30t37.5 -13h926q25 0 40.5 14t15.5 39v270q0 25 -12.5 38.5
t-29.5 13.5t-30 -11t-14 -28l-16 -251h-615v492h326l13 -148q1 -20 13 -31.5t27 -11.5q16 0 27 13t11 38v342q0 26 -11 39.5z" />
    <glyph glyph-name="uni0207" unicode="&#x207;" 
d="M805 976q12 0 23 7.5t11 16.5q0 57 -31.5 91.5t-74.5 48.5t-81 14t-81 -14t-74.5 -48.5t-31.5 -91.5q0 -9 11 -16.5t23 -7.5q18 0 23 16q8 49 45 76.5t85 27.5t85 -27.5t45 -76.5q5 -16 23 -16zM269 180.5q57 -95.5 159.5 -146.5t236.5 -51q85 0 182.5 33t149.5 89
q18 20 18 42q0 18 -11 31t-29 13q-20 0 -41 -17q-57 -54 -129.5 -81.5t-147.5 -27.5q-154 0 -249 82t-100 240l629 5q35 0 56 24.5t21 62.5q0 107 -46.5 182t-128 113.5t-185.5 38.5q-122 0 -222.5 -49t-160 -141t-59.5 -216q0 -131 57 -226.5zM867 652q55 -79 62 -187
l-618 -4q18 128 108.5 199t236.5 71q156 0 211 -79z" />
    <glyph glyph-name="uni0208" unicode="&#x208;" 
d="M949 1350q9 0 16 6.5t7 15.5t-6 15l-231 296q-14 14 -32 14q-23 0 -42 -19.5t-19 -41.5q0 -18 14 -28l282 -254q4 -4 11 -4zM679 1350q9 0 16 6.5t7 15.5t-6 15l-271 276q-14 14 -32 14q-23 0 -42 -19.5t-19 -41.5q0 -18 14 -28l322 -234q4 -4 11 -4zM1032 12.5
q13 12.5 13 30.5q0 17 -13 30t-36 13h-286v999h286q23 0 36 12.5t13 29.5q0 18 -13.5 31t-36.5 13h-685q-24 0 -37.5 -13t-13.5 -31q0 -17 13.5 -29.5t36.5 -12.5h305v-999h-305q-23 0 -36.5 -13t-13.5 -30q0 -18 13.5 -30.5t37.5 -12.5h685q24 0 37 12.5z" />
    <glyph glyph-name="uni0209" unicode="&#x209;" 
d="M991 976q9 0 16 6.5t7 15.5t-6 15l-231 296q-14 14 -32 14q-23 0 -42 -19.5t-19 -41.5q0 -18 14 -28l282 -254q4 -4 11 -4zM721 976q9 0 16 6.5t7 15.5t-6 15l-271 276q-14 14 -32 14q-23 0 -42 -19.5t-19 -41.5q0 -18 14 -28l322 -234q4 -4 11 -4zM1125 12q11 12 11 29
q0 16 -10.5 28.5t-29.5 12.5h-333v697q0 15 -10 23.5t-26 8.5q-8 0 -11 -1l-398 -55q-16 -2 -24 -13.5t-8 -26.5q0 -17 11 -29.5t30 -12.5l7 1l333 45v-637h-372q-20 0 -31 -11.5t-11 -27.5q0 -17 12 -30t34 -13h796q19 0 30 12z" />
    <glyph glyph-name="uni020A" unicode="&#x20a;" 
d="M805 1350q12 0 23 7.5t11 16.5q0 57 -31.5 91.5t-74.5 48.5t-81 14t-81 -14t-74.5 -48.5t-31.5 -91.5q0 -9 11 -16.5t23 -7.5q18 0 23 16q8 49 45 76.5t85 27.5t85 -27.5t45 -76.5q5 -16 23 -16zM1032 12.5q13 12.5 13 30.5q0 17 -13 30t-36 13h-286v999h286
q23 0 36 12.5t13 29.5q0 18 -13.5 31t-36.5 13h-685q-24 0 -37.5 -13t-13.5 -31q0 -17 13.5 -29.5t36.5 -12.5h305v-999h-305q-23 0 -36.5 -13t-13.5 -30q0 -18 13.5 -30.5t37.5 -12.5h685q24 0 37 12.5z" />
    <glyph glyph-name="uni020B" unicode="&#x20b;" 
d="M847 976q12 0 23 7.5t11 16.5q0 57 -31.5 91.5t-74.5 48.5t-81 14t-81 -14t-74.5 -48.5t-31.5 -91.5q0 -9 11 -16.5t23 -7.5q18 0 23 16q8 49 45 76.5t85 27.5t85 -27.5t45 -76.5q5 -16 23 -16zM1125 12q11 12 11 29q0 16 -10.5 28.5t-29.5 12.5h-333v697q0 15 -10 23.5
t-26 8.5q-8 0 -11 -1l-398 -55q-16 -2 -24 -13.5t-8 -26.5q0 -17 11 -29.5t30 -12.5l7 1l333 45v-637h-372q-20 0 -31 -11.5t-11 -27.5q0 -17 12 -30t34 -13h796q19 0 30 12z" />
    <glyph glyph-name="uni020C" unicode="&#x20c;" 
d="M917 1350q9 0 16 6.5t7 15.5t-6 15l-231 296q-14 14 -32 14q-23 0 -42 -19.5t-19 -41.5q0 -18 14 -28l282 -254q4 -4 11 -4zM647 1350q9 0 16 6.5t7 15.5t-6 15l-271 276q-14 14 -32 14q-23 0 -42 -19.5t-19 -41.5q0 -18 14 -28l322 -234q4 -4 11 -4zM1073.5 876.5
q-58.5 138.5 -174.5 224.5t-279 86t-279 -86t-174.5 -224.5t-58.5 -294.5t58.5 -293t174.5 -221.5t279 -84.5t279 84.5t174.5 221.5t58.5 293t-58.5 294.5zM989 331.5q-47 -117.5 -141 -190t-228 -72.5t-228 72.5t-141 190t-47 250.5q0 135 48 253.5t142 192t226 73.5
t226 -73.5t142 -192t48 -253.5q0 -133 -47 -250.5z" />
    <glyph glyph-name="uni020D" unicode="&#x20d;" 
d="M917 976q9 0 16 6.5t7 15.5t-6 15l-231 296q-14 14 -32 14q-23 0 -42 -19.5t-19 -41.5q0 -18 14 -28l282 -254q4 -4 11 -4zM647 976q9 0 16 6.5t7 15.5t-6 15l-271 276q-14 14 -32 14q-23 0 -42 -19.5t-19 -41.5q0 -18 14 -28l322 -234q4 -4 11 -4zM249 179
q53 -94 149 -145t222 -51t222 51t149 145t53 219q0 126 -53 220t-149 144.5t-222 50.5t-222 -50.5t-149 -144.5t-53 -220q0 -125 53 -219zM341.5 570.5q37.5 75.5 109 118t169.5 42.5t169.5 -42.5t109 -118t37.5 -172.5q0 -98 -37.5 -173.5t-109 -117.5t-169.5 -42
t-169.5 42t-109 117.5t-37.5 173.5q0 97 37.5 172.5z" />
    <glyph glyph-name="uni020E" unicode="&#x20e;" 
d="M773 1350q12 0 23 7.5t11 16.5q0 57 -31.5 91.5t-74.5 48.5t-81 14t-81 -14t-74.5 -48.5t-31.5 -91.5q0 -9 11 -16.5t23 -7.5q18 0 23 16q8 49 45 76.5t85 27.5t85 -27.5t45 -76.5q5 -16 23 -16zM1073.5 876.5q-58.5 138.5 -174.5 224.5t-279 86t-279 -86t-174.5 -224.5
t-58.5 -294.5t58.5 -293t174.5 -221.5t279 -84.5t279 84.5t174.5 221.5t58.5 293t-58.5 294.5zM989 331.5q-47 -117.5 -141 -190t-228 -72.5t-228 72.5t-141 190t-47 250.5q0 135 48 253.5t142 192t226 73.5t226 -73.5t142 -192t48 -253.5q0 -133 -47 -250.5z" />
    <glyph glyph-name="uni020F" unicode="&#x20f;" 
d="M773 976q12 0 23 7.5t11 16.5q0 57 -31.5 91.5t-74.5 48.5t-81 14t-81 -14t-74.5 -48.5t-31.5 -91.5q0 -9 11 -16.5t23 -7.5q18 0 23 16q8 49 45 76.5t85 27.5t85 -27.5t45 -76.5q5 -16 23 -16zM249 179q53 -94 149 -145t222 -51t222 51t149 145t53 219q0 126 -53 220
t-149 144.5t-222 50.5t-222 -50.5t-149 -144.5t-53 -220q0 -125 53 -219zM341.5 570.5q37.5 75.5 109 118t169.5 42.5t169.5 -42.5t109 -118t37.5 -172.5q0 -98 -37.5 -173.5t-109 -117.5t-169.5 -42t-169.5 42t-109 117.5t-37.5 173.5q0 97 37.5 172.5z" />
    <glyph glyph-name="uni0210" unicode="&#x210;" 
d="M863 1350q9 0 16 6.5t7 15.5t-6 15l-231 296q-14 14 -32 14q-23 0 -42 -19.5t-19 -41.5q0 -18 14 -28l282 -254q4 -4 11 -4zM593 1350q9 0 16 6.5t7 15.5t-6 15l-271 276q-14 14 -32 14q-23 0 -42 -19.5t-19 -41.5q0 -18 14 -28l322 -234q4 -4 11 -4zM429 82v460h175
q35 0 92 5t68 9l180 -474h-51q-23 0 -36 -12t-13 -28q0 -17 13.5 -29.5t37.5 -12.5h235q33 0 48 12t15 30q0 17 -14.5 28.5t-49.5 11.5h-84l-204 496q89 33 147.5 100.5t58.5 174.5q0 130 -59.5 199.5t-164.5 94t-266 24.5h-320q-24 0 -37.5 -13t-13.5 -31q0 -17 13.5 -29.5
t36.5 -12.5h97v-1003h-125q-24 0 -37 -12t-13 -29q0 -16 13.5 -28.5t37.5 -12.5h399q24 0 37 12.5t13 28.5q0 17 -13 29t-36 12h-180zM556 1085q151 0 234 -18t122 -69t39 -152q0 -95 -50 -144.5t-137.5 -66t-227.5 -16.5h-107v466h127z" />
    <glyph glyph-name="uni0211" unicode="&#x211;" 
d="M915 976q9 0 16 6.5t7 15.5t-6 15l-231 296q-14 14 -32 14q-23 0 -42 -19.5t-19 -41.5q0 -18 14 -28l282 -254q4 -4 11 -4zM645 976q9 0 16 6.5t7 15.5t-6 15l-271 276q-14 14 -32 14q-23 0 -42 -19.5t-19 -41.5q0 -18 14 -28l322 -234q4 -4 11 -4zM934 572.5
q14 -13.5 33 -13.5q20 0 34.5 14.5t14.5 41.5v138q0 30 -20 45t-68 15q-278 0 -392 -175l-4 104q-1 28 -8.5 42t-29.5 14q-10 0 -23 -3l-171 -34q-14 -3 -22 -13.5t-8 -24.5q0 -16 10.5 -28t29.5 -12q8 0 12 1l122 25v-627h-183q-20 0 -31 -12t-11 -28q0 -17 12 -29.5
t34 -12.5h610q19 0 30 12.5t11 28.5q0 17 -10.5 29t-29.5 12h-336v444q40 100 143 152.5t237 52.5v-120q0 -25 14 -38.5z" />
    <glyph glyph-name="uni0212" unicode="&#x212;" 
d="M829 1350q12 0 23 7.5t11 16.5q0 57 -31.5 91.5t-74.5 48.5t-81 14t-81 -14t-74.5 -48.5t-31.5 -91.5q0 -9 11 -16.5t23 -7.5q18 0 23 16q8 49 45 76.5t85 27.5t85 -27.5t45 -76.5q5 -16 23 -16zM429 82v460h175q35 0 92 5t68 9l180 -474h-51q-23 0 -36 -12t-13 -28
q0 -17 13.5 -29.5t37.5 -12.5h235q33 0 48 12t15 30q0 17 -14.5 28.5t-49.5 11.5h-84l-204 496q89 33 147.5 100.5t58.5 174.5q0 130 -59.5 199.5t-164.5 94t-266 24.5h-320q-24 0 -37.5 -13t-13.5 -31q0 -17 13.5 -29.5t36.5 -12.5h97v-1003h-125q-24 0 -37 -12t-13 -29
q0 -16 13.5 -28.5t37.5 -12.5h399q24 0 37 12.5t13 28.5q0 17 -13 29t-36 12h-180zM556 1085q151 0 234 -18t122 -69t39 -152q0 -95 -50 -144.5t-137.5 -66t-227.5 -16.5h-107v466h127z" />
    <glyph glyph-name="uni0213" unicode="&#x213;" 
d="M821 976q12 0 23 7.5t11 16.5q0 57 -31.5 91.5t-74.5 48.5t-81 14t-81 -14t-74.5 -48.5t-31.5 -91.5q0 -9 11 -16.5t23 -7.5q18 0 23 16q8 49 45 76.5t85 27.5t85 -27.5t45 -76.5q5 -16 23 -16zM934 572.5q14 -13.5 33 -13.5q20 0 34.5 14.5t14.5 41.5v138q0 30 -20 45
t-68 15q-278 0 -392 -175l-4 104q-1 28 -8.5 42t-29.5 14q-10 0 -23 -3l-171 -34q-14 -3 -22 -13.5t-8 -24.5q0 -16 10.5 -28t29.5 -12q8 0 12 1l122 25v-627h-183q-20 0 -31 -12t-11 -28q0 -17 12 -29.5t34 -12.5h610q19 0 30 12.5t11 28.5q0 17 -10.5 29t-29.5 12h-336
v444q40 100 143 152.5t237 52.5v-120q0 -25 14 -38.5z" />
    <glyph glyph-name="uni0214" unicode="&#x214;" 
d="M946 1350q9 0 16 6.5t7 15.5t-6 15l-231 296q-14 14 -32 14q-23 0 -42 -19.5t-19 -41.5q0 -18 14 -28l282 -254q4 -4 11 -4zM676 1350q9 0 16 6.5t7 15.5t-6 15l-271 276q-14 14 -32 14q-23 0 -42 -19.5t-19 -41.5q0 -18 14 -28l322 -234q4 -4 11 -4zM1056 1085h118
q33 0 51 12.5t18 29.5q0 18 -18.5 31t-51.5 13h-333q-24 0 -37.5 -13t-13.5 -31q0 -17 13.5 -29.5t36.5 -12.5h121v-674q0 -100 -38 -177.5t-107 -121t-161 -43.5q-149 0 -229 90t-80 254v672h162q23 0 36 12.5t13 29.5q0 18 -13.5 31t-36.5 13h-401q-23 0 -36.5 -13
t-13.5 -31q0 -17 13 -29.5t36 -12.5h145v-672q0 -133 51 -230t142.5 -148.5t211.5 -51.5q118 0 209.5 54t142 151t50.5 223v674z" />
    <glyph glyph-name="uni0215" unicode="&#x215;" 
d="M869 976q9 0 16 6.5t7 15.5t-6 15l-231 296q-14 14 -32 14q-23 0 -42 -19.5t-19 -41.5q0 -18 14 -28l282 -254q4 -4 11 -4zM599 976q9 0 16 6.5t7 15.5t-6 15l-271 276q-14 14 -32 14q-23 0 -42 -19.5t-19 -41.5q0 -18 14 -28l322 -234q4 -4 11 -4zM366 768q0 14 -9.5 24
t-24.5 10q-4 0 -12 -2l-175 -35q-18 -4 -27 -14t-9 -24q0 -17 13 -30t33 -13q11 0 17 2l98 20v-444q0 -83 34.5 -146t100.5 -98t156 -35q94 0 181 43t131 108l5 -87q1 -25 14 -37.5t33 -12.5h7l186 20q18 4 28 16.5t10 27.5t-10 25t-30 10h-6l-148 -11v683q0 14 -9.5 24
t-24.5 10q-4 0 -12 -2l-174 -35q-19 -4 -28.5 -14.5t-9.5 -24.5q0 -17 13 -30t34 -13q9 0 18 3l97 20v-475q-22 -46 -71.5 -84t-111.5 -60t-121 -22q-97 0 -146.5 53.5t-49.5 140.5v509z" />
    <glyph glyph-name="uni0216" unicode="&#x216;" 
d="M802 1350q12 0 23 7.5t11 16.5q0 57 -31.5 91.5t-74.5 48.5t-81 14t-81 -14t-74.5 -48.5t-31.5 -91.5q0 -9 11 -16.5t23 -7.5q18 0 23 16q8 49 45 76.5t85 27.5t85 -27.5t45 -76.5q5 -16 23 -16zM1056 1085h118q33 0 51 12.5t18 29.5q0 18 -18.5 31t-51.5 13h-333
q-24 0 -37.5 -13t-13.5 -31q0 -17 13.5 -29.5t36.5 -12.5h121v-674q0 -100 -38 -177.5t-107 -121t-161 -43.5q-149 0 -229 90t-80 254v672h162q23 0 36 12.5t13 29.5q0 18 -13.5 31t-36.5 13h-401q-23 0 -36.5 -13t-13.5 -31q0 -17 13 -29.5t36 -12.5h145v-672
q0 -133 51 -230t142.5 -148.5t211.5 -51.5q118 0 209.5 54t142 151t50.5 223v674z" />
    <glyph glyph-name="uni0217" unicode="&#x217;" 
d="M785 976q12 0 23 7.5t11 16.5q0 57 -31.5 91.5t-74.5 48.5t-81 14t-81 -14t-74.5 -48.5t-31.5 -91.5q0 -9 11 -16.5t23 -7.5q18 0 23 16q8 49 45 76.5t85 27.5t85 -27.5t45 -76.5q5 -16 23 -16zM366 768q0 14 -9.5 24t-24.5 10q-4 0 -12 -2l-175 -35q-18 -4 -27 -14
t-9 -24q0 -17 13 -30t33 -13q11 0 17 2l98 20v-444q0 -83 34.5 -146t100.5 -98t156 -35q94 0 181 43t131 108l5 -87q1 -25 14 -37.5t33 -12.5h7l186 20q18 4 28 16.5t10 27.5t-10 25t-30 10h-6l-148 -11v683q0 14 -9.5 24t-24.5 10q-4 0 -12 -2l-174 -35q-19 -4 -28.5 -14.5
t-9.5 -24.5q0 -17 13 -30t34 -13q9 0 18 3l97 20v-475q-22 -46 -71.5 -84t-111.5 -60t-121 -22q-97 0 -146.5 53.5t-49.5 140.5v509z" />
    <glyph glyph-name="Scommaaccent" unicode="&#x218;" 
d="M609 -333.5q29 -22.5 77 -22.5q0 -41 -36.5 -79.5t-86.5 -74.5q-12 -9 -12 -21q0 -10 8.5 -18.5t19.5 -8.5q7 0 10 2q43 22 86 63.5t71 95t28 108.5q0 109 -102 109q-40 0 -66 -20t-26 -65q0 -46 29 -68.5zM918 858q0 -22 13.5 -34.5t31.5 -12.5q20 0 33 13.5t13 39.5
v253q0 38 -9.5 54t-30.5 16q-28 0 -40 -23t-12 -69q-47 52 -124.5 72t-165.5 20q-96 0 -174.5 -35.5t-124.5 -104.5t-46 -166q0 -87 36.5 -142.5t95.5 -88t153 -64.5l164 -56q81 -28 129.5 -55t74.5 -68t26 -103q0 -121 -75 -178t-194 -57q-81 0 -158.5 27t-126.5 69.5
t-49 84.5v119q0 23 -13.5 36t-32.5 13t-31.5 -12t-12.5 -35v-314q0 -42 11 -58t37 -16q23 0 35 32t12 90q53 -56 147 -89t179 -33q102 0 185 33t133 106t50 186q0 83 -35 140.5t-100.5 97t-170.5 75.5l-136 47q-100 35 -144 56t-68.5 58t-24.5 104q0 100 72 157.5t200 57.5
q62 0 121.5 -17t100 -51.5t46.5 -83.5v-91z" />
    <glyph glyph-name="scommaaccent" unicode="&#x219;" 
d="M588 -333.5q29 -22.5 77 -22.5q0 -41 -36.5 -79.5t-86.5 -74.5q-12 -9 -12 -21q0 -10 8.5 -18.5t19.5 -8.5q7 0 10 2q43 22 86 63.5t71 95t28 108.5q0 109 -102 109q-40 0 -66 -20t-26 -65q0 -46 29 -68.5zM342 454q55 -48 155 -67l266 -52q64 -12 91 -43.5t27 -82.5
q0 -73 -60.5 -108.5t-174.5 -35.5q-85 0 -155 26t-110.5 72t-40.5 102q0 32 -9.5 42t-26.5 10q-14 0 -25 -13t-11 -39l-2 -226q0 -17 12 -28t28 -11q15 0 25.5 10.5t10.5 31.5v60q55 -63 135.5 -91t174.5 -28q149 0 237.5 56.5t88.5 168.5q0 103 -52.5 153t-149.5 69
l-259 52q-71 16 -99 44.5t-28 74.5q0 130 212 130q109 0 184.5 -31t102.5 -94q1 -47 8 -66t32 -19q20 0 29 9t11 28l2 201q0 23 -12 36t-29 13t-30 -13.5t-12 -36.5v-37q-30 39 -111 65.5t-168 26.5q-137 0 -229.5 -52t-92.5 -175q0 -84 55 -132z" />
    <glyph glyph-name="uni021A" unicode="&#x21a;" 
d="M565 -316.5q29 -22.5 77 -22.5q0 -41 -36.5 -79.5t-86.5 -74.5q-12 -9 -12 -21q0 -10 8.5 -18.5t19.5 -8.5q7 0 10 2q43 22 86 63.5t71 95t28 108.5q0 109 -102 109q-40 0 -66 -20t-26 -65q0 -46 29 -68.5zM570 1085v-999h-242q-23 0 -36.5 -12.5t-13.5 -29.5
q0 -18 14 -31t38 -13h576q24 0 37.5 13t13.5 31q0 17 -13 29.5t-36 12.5h-242v999h352l10 -271q1 -20 14 -31.5t30 -11.5q19 0 32.5 13.5t13.5 38.5v294q0 27 -9.5 40.5t-30.5 13.5h-916q-23 0 -32.5 -13t-9.5 -41v-294q0 -25 15 -39.5t34 -14.5q16 0 28 11.5t13 33.5
l12 271h348z" />
    </font>
</defs>
</svg>
